<svg xmlns="http://www.w3.org/2000/svg">
<defs>
<font id="Plaax6Ney-46-Bold" horiz-adv-x="500" >
  <font-face 
    font-family="Plaax 6 Ney Regular"
    font-weight="700"
    font-stretch="expanded"
    units-per-em="1000"
    panose-1="2 0 0 0 0 0 0 0 0 0"
    ascent="800"
    descent="-200"
    x-height="505"
    cap-height="700"
    bbox="-47 -259 2157 1082"
    underline-thickness="20"
    underline-position="-119"
    unicode-range="U+0020-F6C3"
  />
<missing-glyph horiz-adv-x="589" 
d="M294 684l285 -164v-328l-285 -164l-284 164v328zM308 561v-75h8v34h36v8h-36v25h39v8h-47zM230 561v-8h23v-67h8v67h24v8h-55zM493 281q24 13 28.5 35t-6.5 40q-12 22 -33 25.5t-37 -6.5q-9 -5 -14.5 -12t-8.5 -15l-26 46l63 37l-8 14l-78 -45l47 -82l14 8q-1 9 3 18.5
t15 15.5q13 7 27 4t22 -16q7 -15 3 -29.5t-18 -22.5q-12 -7 -22.5 -6.5t-20.5 5.5l-5 -17q11 -4 25.5 -5t29.5 8zM127 259l89 51l-8 15l-68 -40l20 69q4 15 5 28.5t-6 26.5q-10 18 -30 22.5t-39 -5.5q-18 -10 -23.5 -30t4.5 -38t29.5 -23.5t35.5 4.5l4 3l-20 -70zM335 282
q26 16 25 45t-17 56q-16 28 -40.5 43t-50.5 0t-25.5 -44t16.5 -56q16 -28 40.5 -43.5t51.5 -0.5zM145 400q7 -12 3 -25.5t-16 -20.5q-13 -7 -26.5 -4t-20.5 16t-3 26t16 20q13 7 26.5 4t20.5 -16zM260 412q10 6 21 4t21 -10l-29 -92q-4 4 -7.5 9t-7.5 11q-14 25 -14.5 46.5
t16.5 31.5zM314 394q4 -4 7.5 -9t6.5 -11q14 -25 14.5 -46.5t-15.5 -31.5q-10 -5 -20.5 -3.5t-20.5 9.5zM293 130q16 0 28 12t12 29q0 16 -12 28t-28 12q-17 0 -28.5 -12t-11.5 -28q0 -17 11.5 -29t28.5 -12zM293 202q13 0 21.5 -9t8.5 -22t-8.5 -22.5t-21.5 -9.5t-22 9.5
t-9 22.5t9 22t22 9zM302 153h8l-9 13q4 1 6 4.5t2 7.5q0 5 -3.5 8.5t-9.5 3.5h-17v-37h8v12h7zM294 184q4 0 6 -2t2 -4q0 -4 -2 -5.5t-6 -1.5h-7v13h7z" />
    <glyph glyph-name=".notdef" horiz-adv-x="589" 
d="M294 684l285 -164v-328l-285 -164l-284 164v328zM308 561v-75h8v34h36v8h-36v25h39v8h-47zM230 561v-8h23v-67h8v67h24v8h-55zM493 281q24 13 28.5 35t-6.5 40q-12 22 -33 25.5t-37 -6.5q-9 -5 -14.5 -12t-8.5 -15l-26 46l63 37l-8 14l-78 -45l47 -82l14 8q-1 9 3 18.5
t15 15.5q13 7 27 4t22 -16q7 -15 3 -29.5t-18 -22.5q-12 -7 -22.5 -6.5t-20.5 5.5l-5 -17q11 -4 25.5 -5t29.5 8zM127 259l89 51l-8 15l-68 -40l20 69q4 15 5 28.5t-6 26.5q-10 18 -30 22.5t-39 -5.5q-18 -10 -23.5 -30t4.5 -38t29.5 -23.5t35.5 4.5l4 3l-20 -70zM335 282
q26 16 25 45t-17 56q-16 28 -40.5 43t-50.5 0t-25.5 -44t16.5 -56q16 -28 40.5 -43.5t51.5 -0.5zM145 400q7 -12 3 -25.5t-16 -20.5q-13 -7 -26.5 -4t-20.5 16t-3 26t16 20q13 7 26.5 4t20.5 -16zM260 412q10 6 21 4t21 -10l-29 -92q-4 4 -7.5 9t-7.5 11q-14 25 -14.5 46.5
t16.5 31.5zM314 394q4 -4 7.5 -9t6.5 -11q14 -25 14.5 -46.5t-15.5 -31.5q-10 -5 -20.5 -3.5t-20.5 9.5zM293 130q16 0 28 12t12 29q0 16 -12 28t-28 12q-17 0 -28.5 -12t-11.5 -28q0 -17 11.5 -29t28.5 -12zM293 202q13 0 21.5 -9t8.5 -22t-8.5 -22.5t-21.5 -9.5t-22 9.5
t-9 22.5t9 22t22 9zM302 153h8l-9 13q4 1 6 4.5t2 7.5q0 5 -3.5 8.5t-9.5 3.5h-17v-37h8v12h7zM294 184q4 0 6 -2t2 -4q0 -4 -2 -5.5t-6 -1.5h-7v13h7z" />
    <glyph glyph-name=".null" horiz-adv-x="0" 
 />
    <glyph glyph-name="nonmarkingreturn" horiz-adv-x="333" 
 />
    <glyph glyph-name="space" unicode=" " horiz-adv-x="280" 
 />
    <glyph glyph-name="exclam" unicode="!" horiz-adv-x="314" 
d="M109 228l-24 472h144l-24 -472h-96zM78 64q0 34 23 56.5t56 22.5t56 -22.5t23 -56.5t-23 -56.5t-56 -22.5t-56 22.5t-23 56.5z" />
    <glyph glyph-name="quotedbl" unicode="&#x22;" horiz-adv-x="495" 
d="M85 415v285h125v-285h-125zM285 415v285h125v-285h-125z" />
    <glyph glyph-name="numbersign" unicode="#" horiz-adv-x="880" 
d="M385 0l70 175h-171l-70 -175h-129l70 175h-105v120h153l46 115h-119v120h167l68 170h129l-68 -170h171l68 170h129l-68 -170h104v-120h-152l-46 -115h118v-120h-166l-70 -175h-129zM332 295h171l46 115h-171z" />
    <glyph glyph-name="dollar" unicode="$" horiz-adv-x="720" 
d="M415 -125h-115v114q-76 8 -126.5 33.5t-80 52t-41.5 47.5l-12 21l105 76l9 -13t27.5 -30t48 -34t70.5 -26v178q-49 4 -92 18t-74.5 39t-50 62.5t-18.5 87.5q0 45 19 82t51 63.5t75 43.5t90 22v113h115v-116q65 -10 109 -34.5t71 -50t38.5 -45l11.5 -19.5l-105 -74
l-6.5 11.5t-21 27t-38.5 31.5t-59 25v-168h5q53 -4 98.5 -17.5t79 -38.5t53 -63t19.5 -90q0 -48 -20 -86t-54.5 -65t-81 -43.5t-99.5 -21.5v-113zM192 501q0 -37 30 -55.5t78 -22.5v164q-49 -7 -78.5 -29t-29.5 -57zM420 284h-5v-172q54 6 89.5 27t35.5 62q0 42 -37.5 61
t-82.5 22z" />
    <glyph glyph-name="percent" unicode="%" horiz-adv-x="855" 
d="M178 295q-49 0 -88.5 31.5t-39.5 98.5v155q0 67 39.5 98.5t88.5 31.5t88 -31.5t39 -98.5v-155q0 -67 -39 -98.5t-88 -31.5zM174 0l395 700h114l-395 -700h-114zM219 575q0 22 -10 35.5t-31 13.5q-22 0 -32 -13.5t-10 -35.5v-145q0 -22 10 -35.5t31 -13.5q22 0 32 13.5
t10 35.5v145zM678 -10q-49 0 -88.5 31.5t-39.5 98.5v155q0 67 39.5 98.5t88.5 31.5t88 -31.5t39 -98.5v-155q0 -67 -39 -98.5t-88 -31.5zM719 270q0 22 -10 35.5t-31 13.5q-22 0 -32 -13.5t-10 -35.5v-145q0 -22 10 -35.5t31 -13.5q22 0 32 13.5t10 35.5v145z" />
    <glyph glyph-name="ampersand" unicode="&#x26;" horiz-adv-x="611" 
d="M591 0h-150l-41 54l-19 -15q-27 -21 -62 -35t-82 -14q-41 0 -77.5 14.5t-63 40t-41.5 61t-15 76.5q0 62 29 108.5t76 81.5l13 10l-14 20q-27 37 -39 69t-12 65q0 36 13 67.5t36 55.5t55.5 37.5t72.5 13.5t72 -14t54 -38t33.5 -56t11.5 -69q0 -51 -29 -91t-74 -74l-11 -9
l97 -132l92 74l73 -99l-93 -73zM280 473q22 16 31.5 31.5t9.5 31.5q0 20 -14 36.5t-39 16.5t-38.5 -16.5t-13.5 -36.5q0 -10 5.5 -25.5t17.5 -31.5l17 -24zM160 188q0 -26 20.5 -51t60.5 -25q26 0 44 9.5t31 19.5l13 10l-100 135l-23 -17q-23 -17 -34.5 -36t-11.5 -45z" />
    <glyph glyph-name="quotesingle" unicode="'" horiz-adv-x="295" 
d="M85 415v285h125v-285h-125z" />
    <glyph glyph-name="parenleft" unicode="(" horiz-adv-x="375" 
d="M50 326q0 73 13.5 137.5t35 120t49 103.5t56.5 88l106 -67q-53 -81 -91.5 -174.5t-38.5 -207.5t38.5 -207.5t91.5 -174.5l-106 -67q-29 40 -56.5 88t-49 103.5t-35 120t-13.5 137.5z" />
    <glyph glyph-name="parenright" unicode=")" horiz-adv-x="375" 
d="M325 326q0 -73 -13.5 -137.5t-35 -120t-49 -103.5t-56.5 -88l-106 67q53 81 91.5 174.5t38.5 207.5t-38.5 207.5t-91.5 174.5l106 67q29 -40 56.5 -88t49 -103.5t35 -120t13.5 -137.5z" />
    <glyph glyph-name="asterisk" unicode="*" horiz-adv-x="596" 
d="M242 700h115l-7 -140l127 51l34 -109l-128 -37l82 -102l-94 -67l-71 113l-72 -115l-94 68l83 103l-132 37l35 109l129 -51z" />
    <glyph glyph-name="plus" unicode="+" horiz-adv-x="547" 
d="M65 243v123h147v147h123v-147h147v-123h-147v-147h-123v147h-147z" />
    <glyph glyph-name="comma" unicode="," horiz-adv-x="310" 
d="M98 143h133l-82 -293h-104z" />
    <glyph glyph-name="hyphen" unicode="-" horiz-adv-x="470" 
d="M85 200v125h300v-125h-300z" />
    <glyph glyph-name="period" unicode="." horiz-adv-x="310" 
d="M76 64q0 34 23 56.5t56 22.5t56 -22.5t23 -56.5t-23 -56.5t-56 -22.5t-56 22.5t-23 56.5z" />
    <glyph glyph-name="slash" unicode="/" horiz-adv-x="579" 
d="M85 0l280 700h129l-280 -700h-129z" />
    <glyph glyph-name="zero" unicode="0" horiz-adv-x="680" 
d="M640 350q0 -86 -23 -154t-63.5 -114.5t-95.5 -71.5t-118 -25t-118 25t-95.5 71.5t-63.5 114.5t-23 154t23 154t63.5 114.5t95.5 71.5t118 25t118 -25t95.5 -71.5t63.5 -114.5t23 -154zM165 350q0 -110 47 -175t128 -65t128 65t47 175t-47 175t-128 65t-128 -65t-47 -175z
" />
    <glyph glyph-name="one" unicode="1" horiz-adv-x="382" 
d="M307 0h-125v517q-31 -27 -74 -46t-83 -27v126q49 14 94.5 47.5t70.5 82.5h117v-700z" />
    <glyph glyph-name="two" unicode="2" horiz-adv-x="659" 
d="M341 590q-78 0 -126.5 -36.5t-63.5 -88.5l-111 52q11 36 36.5 71.5t63.5 63.5t89.5 45.5t113.5 17.5q58 0 108 -17.5t86 -48t56.5 -72t20.5 -88.5q0 -81 -44 -127.5t-148 -89.5l-89 -37q-70 -29 -107.5 -56t-41.5 -54h419v-125h-561v33q0 65 12.5 111t40.5 80.5t72.5 61
t108.5 52.5l105 43q53 22 80.5 43.5t27.5 62.5q0 38 -35 70.5t-113 32.5z" />
    <glyph glyph-name="three" unicode="3" horiz-adv-x="664" 
d="M339 -15q-65 0 -114.5 14.5t-86 39.5t-60.5 59.5t-38 72.5l114 46q20 -50 63 -78.5t118 -28.5q72 0 115.5 26t43.5 68q0 43 -42 68.5t-132 25.5h-104v123h104q91 0 126 23t35 60q0 28 -32.5 57t-113.5 29q-74 0 -120.5 -34.5t-59.5 -80.5l-111 49q13 40 39 75t64 60.5
t87 40.5t107 15q59 0 108.5 -16.5t84 -45t53.5 -67t19 -82.5q0 -42 -20.5 -78.5t-70.5 -64.5q48 -23 76 -63t28 -97q0 -47 -21 -87t-58 -68.5t-89 -44.5t-112 -16z" />
    <glyph glyph-name="four" unicode="4" horiz-adv-x="664" 
d="M25 257l385 443h125v-433h104v-124h-104v-143h-125v143h-385v114zM172 267h238v276z" />
    <glyph glyph-name="five" unicode="5" horiz-adv-x="669" 
d="M62 303l26 397h494v-125h-386l-11 -152q26 19 70 34.5t99 15.5q54 0 102.5 -16.5t84.5 -47.5t57 -77t21 -103q0 -52 -18.5 -97t-54 -77.5t-87.5 -51t-118 -18.5q-62 0 -111.5 16t-86 41.5t-61.5 59.5t-37 69l113 45q19 -47 63.5 -76.5t113.5 -29.5q75 0 117 33t42 86
q0 56 -45 88t-117 32q-57 0 -94 -16.5t-55 -29.5h-121z" />
    <glyph glyph-name="six" unicode="6" horiz-adv-x="673" 
d="M348 590q-47 0 -81 -17.5t-56 -46.5t-33 -67.5t-11 -80.5q24 30 72.5 53.5t114.5 23.5q65 0 115.5 -18.5t84.5 -49.5t51.5 -73t17.5 -89q0 -45 -18 -88.5t-53 -77t-88.5 -54t-123.5 -20.5q-138 0 -216.5 93.5t-78.5 260.5q0 94 21.5 164.5t61.5 117.5t96 70.5t125 23.5
q55 0 98.5 -15t75 -39.5t53 -55t34.5 -61.5l-112 -51q-18 40 -52.5 68.5t-97.5 28.5zM344 110q69 0 111.5 31t42.5 80t-42.5 80t-111.5 31t-111.5 -31t-42.5 -80t42.5 -80t111.5 -31z" />
    <glyph glyph-name="seven" unicode="7" horiz-adv-x="585" 
d="M20 575v125h545v-125q-44 -49 -90.5 -109t-86 -131.5t-68 -155.5t-35.5 -179h-132q6 100 33.5 186t65 157t81 129t81.5 103h-394z" />
    <glyph glyph-name="eight" unicode="8" horiz-adv-x="677" 
d="M627 200q0 -93 -76 -154t-213 -61t-212.5 61t-75.5 154q0 54 26.5 96t84.5 67q-43 21 -69.5 57.5t-26.5 91.5q0 41 18.5 78t53.5 64.5t86 44t115 16.5t115 -16.5t86.5 -44t54 -64.5t18.5 -78q0 -55 -26.5 -91.5t-69.5 -57.5q58 -25 84.5 -67t26.5 -96zM338 590
q-81 0 -114.5 -27t-33.5 -55t33.5 -54.5t114.5 -26.5t115 26.5t34 54.5t-34 55t-115 27zM338 110q82 0 123 27t41 69t-41 69.5t-123 27.5t-122.5 -27.5t-40.5 -69.5t40.5 -69t122.5 -27z" />
    <glyph glyph-name="nine" unicode="9" horiz-adv-x="673" 
d="M325 110q47 0 81 17.5t56 46.5t33 67.5t11 80.5q-24 -30 -72.5 -53.5t-114.5 -23.5q-65 0 -115.5 18.5t-84.5 49.5t-51.5 73t-17.5 89q0 45 18 88.5t53 77t88.5 54t123.5 20.5q138 0 216.5 -93.5t78.5 -260.5q0 -94 -21.5 -164.5t-61.5 -117.5t-96 -70.5t-125 -23.5
q-55 0 -98.5 15t-75 39.5t-53 55t-34.5 61.5l112 51q18 -40 52.5 -68.5t97.5 -28.5zM329 590q-69 0 -111.5 -31t-42.5 -80t42.5 -80t111.5 -31t111.5 31t42.5 80t-42.5 80t-111.5 31z" />
    <glyph glyph-name="colon" unicode=":" horiz-adv-x="310" 
d="M76 391q0 34 23 56.5t56 22.5t56 -22.5t23 -56.5t-23 -56.5t-56 -22.5t-56 22.5t-23 56.5zM76 64q0 34 23 56.5t56 22.5t56 -22.5t23 -56.5t-23 -56.5t-56 -22.5t-56 22.5t-23 56.5z" />
    <glyph glyph-name="semicolon" unicode=";" horiz-adv-x="310" 
d="M76 391q0 34 23 56.5t56 22.5t56 -22.5t23 -56.5t-23 -56.5t-56 -22.5t-56 22.5t-23 56.5zM91 143h133l-82 -293h-104z" />
    <glyph glyph-name="less" unicode="&#x3c;" horiz-adv-x="440" 
d="M45 369l350 190v-138l-224 -117l224 -117v-138l-350 190v130z" />
    <glyph glyph-name="equal" unicode="=" horiz-adv-x="547" 
d="M65 143v123h417v-123h-417zM65 343v123h417v-123h-417z" />
    <glyph glyph-name="greater" unicode="&#x3e;" horiz-adv-x="440" 
d="M395 369v-130l-350 -190v138l224 117l-224 117v138z" />
    <glyph glyph-name="question" unicode="?" horiz-adv-x="585" 
d="M344 228h-127v132l106 51q40 19 60 42t20 53q0 39 -31 61.5t-81 22.5q-38 0 -65 -15t-44.5 -33t-25.5 -33l-8 -15l-108 57l13.5 25.5t43 56.5t77.5 56.5t117 25.5q53 0 98 -17.5t77.5 -47.5t50.5 -70.5t18 -84.5q0 -69 -42 -116t-101 -75l-48 -23v-53zM202 64
q0 34 23 56.5t56 22.5t56 -22.5t23 -56.5t-23 -56.5t-56 -22.5t-56 22.5t-23 56.5z" />
    <glyph glyph-name="at" unicode="@" horiz-adv-x="784" 
d="M397 -15q-74 0 -137.5 27.5t-110 76t-73 115.5t-26.5 146t27.5 146t74.5 115.5t111.5 76t138.5 27.5t137 -25t108.5 -70.5t71 -110.5t25.5 -144q0 -32 -8.5 -65t-26.5 -60t-46.5 -44.5t-67.5 -17.5q-31 0 -57 13t-42 38q-18 -20 -47.5 -35.5t-66.5 -15.5q-77 0 -123 46
t-46 123q0 35 11.5 66t32 53.5t49.5 36t64 13.5q29 0 54 -11t41 -27v28h105v-186q0 -24 7.5 -39.5t27.5 -15.5q15 0 24.5 10.5t15 25.5t7.5 32.5t2 31.5q0 125 -66.5 192.5t-185.5 67.5t-190.5 -75t-71.5 -200t69 -200t188 -75q47 0 90.5 13.5t74.5 36.5l54 -69
q-44 -36 -100 -53.5t-119 -17.5zM323 347q0 -31 20 -53.5t51 -22.5t51 21t20 55q0 39 -20 57.5t-51 18.5t-51 -22.5t-20 -53.5z" />
    <glyph glyph-name="A" unicode="A" horiz-adv-x="778" 
d="M623 0l-70 180h-329l-69 -180h-135l270 700h198l270 -700h-135zM272 305h233l-116 301z" />
    <glyph glyph-name="B" unicode="B" horiz-adv-x="750" 
d="M85 0v700h396q42 0 79.5 -16t65 -43.5t43.5 -64.5t16 -79t-15 -79.5t-50 -65.5q34 -28 49.5 -66t15.5 -82q0 -42 -16 -79t-43.5 -65t-65 -44t-79.5 -16h-396zM479 413q34 0 57.5 24t23.5 57t-23.5 57t-57.5 24h-269v-162h269zM478 125q34 0 58 24.5t24 57.5t-24 57.5
t-58 24.5h-268v-164h268z" />
    <glyph glyph-name="C" unicode="C" horiz-adv-x="756" 
d="M716 205q-33 -104 -119.5 -162t-199.5 -58q-74 0 -137.5 27.5t-110 76t-73 115.5t-26.5 146t26.5 146t73 115.5t110 76t137.5 27.5q112 0 196.5 -55t121.5 -161l-113 -52q-21 63 -74 103t-131 40q-101 0 -161.5 -66.5t-60.5 -173.5t60.5 -173.5t161.5 -66.5q80 0 133 41
t73 106z" />
    <glyph glyph-name="D" unicode="D" horiz-adv-x="765" 
d="M368 700q74 0 137.5 -26t110 -72t73 -110.5t26.5 -141.5t-26.5 -141.5t-73 -110.5t-110 -72t-137.5 -26h-283v700h283zM210 575v-450h158q101 0 161.5 61t60.5 164t-60.5 164t-161.5 61h-158z" />
    <glyph glyph-name="E" unicode="E" horiz-adv-x="735" 
d="M655 575h-445v-162h435v-124h-435v-164h450v-125h-575v700h570v-125z" />
    <glyph glyph-name="F" unicode="F" horiz-adv-x="680" 
d="M620 575h-410v-162h400v-124h-400v-289h-125v700h535v-125z" />
    <glyph glyph-name="G" unicode="G" horiz-adv-x="775" 
d="M397 365h309v-365h-115v56q-42 -39 -93.5 -55t-105.5 -16q-72 0 -135 27.5t-108.5 76t-72 115.5t-26.5 146t26.5 146t73 115.5t110 76t137.5 27.5q112 0 196.5 -55t121.5 -161l-113 -52q-21 63 -74 103t-131 40q-101 0 -161.5 -66.5t-60.5 -173.5t60.5 -173.5
t161.5 -66.5q75 0 124.5 38t65.5 92h-190v125z" />
    <glyph glyph-name="H" unicode="H" horiz-adv-x="800" 
d="M590 0v290h-380v-290h-125v700h125v-285h380v285h125v-700h-125z" />
    <glyph glyph-name="I" unicode="I" horiz-adv-x="295" 
d="M85 0v700h125v-700h-125z" />
    <glyph glyph-name="J" unicode="J" horiz-adv-x="649" 
d="M574 700v-433q0 -62 -19 -114.5t-53.5 -89.5t-84 -57.5t-110.5 -20.5q-82 0 -134 32t-81.5 70t-40.5 70l-11 32l115 54l6 -21t22.5 -45.5t46.5 -45.5t77 -21q67 0 104.5 43.5t37.5 113.5v433h125z" />
    <glyph glyph-name="K" unicode="K" horiz-adv-x="776" 
d="M582 0l-223 362l-149 -141v-221h-125v700h125v-310l325 310h180l-259 -246l290 -454h-164z" />
    <glyph glyph-name="L" unicode="L" horiz-adv-x="670" 
d="M210 125h410v-125h-535v700h125v-575z" />
    <glyph glyph-name="M" unicode="M" horiz-adv-x="997" 
d="M787 0v584l-192 -584h-193l-192 584v-584h-125v700h219l194 -593l195 593h219v-700h-125z" />
    <glyph glyph-name="N" unicode="N" horiz-adv-x="817" 
d="M526 0l-316 590v-590h-125v700h206l316 -590v590h125v-700h-206z" />
    <glyph glyph-name="O" unicode="O" horiz-adv-x="794" 
d="M50 350q0 79 26.5 146t73 115.5t110 76t137.5 27.5t137.5 -27.5t110 -76t73 -115.5t26.5 -146t-26.5 -146t-73 -115.5t-110 -76t-137.5 -27.5t-137.5 27.5t-110 76t-73 115.5t-26.5 146zM619 350q0 107 -60.5 173.5t-161.5 66.5t-161.5 -66.5t-60.5 -173.5t60.5 -173.5
t161.5 -66.5t161.5 66.5t60.5 173.5z" />
    <glyph glyph-name="P" unicode="P" horiz-adv-x="735" 
d="M210 237v-237h-125v700h356q50 0 94.5 -17.5t77.5 -47.5t52.5 -72.5t19.5 -91.5q0 -50 -19.5 -93t-53 -74t-78.5 -49t-95 -18h-229zM210 575v-214h228q56 0 89 29.5t33 77.5t-33 77.5t-89 29.5h-228z" />
    <glyph glyph-name="Q" unicode="Q" horiz-adv-x="794" 
d="M50 350q0 79 26.5 146t73 115.5t110 76t137.5 27.5t137.5 -27.5t110 -76t73 -115.5t26.5 -146q0 -81 -23 -142.5t-63 -107.5l68 -64l-89 -91l-78 78q-36 -18 -77 -28t-85 -10q-74 0 -137.5 27.5t-110 76t-73 115.5t-26.5 146zM619 350q0 107 -60.5 173.5t-161.5 66.5
t-161.5 -66.5t-60.5 -173.5t60.5 -173.5t161.5 -66.5t161.5 66.5t60.5 173.5z" />
    <glyph glyph-name="R" unicode="R" horiz-adv-x="756" 
d="M557 0l-131 257h-216v-257h-125v700h366q50 0 93 -17t74 -46.5t49 -69.5t18 -86q0 -66 -35.5 -120t-94.5 -81l151 -280h-149zM448 575h-238v-194h238q56 0 84 28.5t28 68.5t-28 68.5t-84 28.5z" />
    <glyph glyph-name="S" unicode="S" horiz-adv-x="720" 
d="M362 -15q-96 0 -158.5 25t-98.5 54t-50.5 54l-14.5 25l105 76l12.5 -17t38.5 -37.5t67.5 -37.5t98.5 -17q36 0 68.5 4.5t57 15.5t38.5 28.5t14 42.5q0 42 -37.5 60.5t-82.5 22.5l-120 10q-49 4 -92 18t-74.5 39t-50 62.5t-18.5 87.5t23.5 90t62 67.5t89.5 42t105 14.5
q85 0 143 -24.5t92.5 -53t49.5 -53l15 -24.5l-105 -74l-9 16.5t-31.5 35.5t-60 35.5t-94.5 16.5q-66 0 -109.5 -23t-43.5 -66q0 -37 30 -55.5t78 -22.5l120 -10q53 -4 98.5 -18t79 -38.5t53 -62.5t19.5 -90q0 -54 -25 -95.5t-67 -68.5t-98 -41t-118 -14z" />
    <glyph glyph-name="T" unicode="T" horiz-adv-x="664" 
d="M624 575h-230v-575h-125v575h-229v125h584v-125z" />
    <glyph glyph-name="U" unicode="U" horiz-adv-x="744" 
d="M669 700v-418q0 -68 -23.5 -123t-64 -93.5t-94.5 -59.5t-115 -21t-115 21t-94.5 59.5t-64 93.5t-23.5 123v418h125v-418q0 -41 14.5 -73t38 -54t54.5 -33.5t65 -11.5t65 11.5t54.5 33.5t38 54t14.5 73v418h125z" />
    <glyph glyph-name="V" unicode="V" horiz-adv-x="722" 
d="M160 700l201 -586l201 586h135l-240 -700h-192l-240 700h135z" />
    <glyph glyph-name="W" unicode="W" horiz-adv-x="1017" 
d="M160 700l119 -581l120 581h220l119 -579l119 579h135l-144 -700h-220l-119 578l-119 -578h-221l-144 700h135z" />
    <glyph glyph-name="X" unicode="X" horiz-adv-x="744" 
d="M372 271l-177 -271h-155l245 355l-235 345h155l167 -262l167 262h155l-235 -345l245 -355h-155z" />
    <glyph glyph-name="Y" unicode="Y" horiz-adv-x="692" 
d="M408 0h-125v218l-258 482h135l186 -349l186 349h135l-259 -482v-218z" />
    <glyph glyph-name="Z" unicode="Z" horiz-adv-x="685" 
d="M65 700h540v-125l-379 -450h399v-125h-565v125l379 450h-374v125z" />
    <glyph glyph-name="bracketleft" unicode="[" horiz-adv-x="425" 
d="M85 -99v850h300v-125h-175v-600h175v-125h-300z" />
    <glyph glyph-name="backslash" unicode="\" horiz-adv-x="579" 
d="M494 0h-129l-280 700h129z" />
    <glyph glyph-name="bracketright" unicode="]" horiz-adv-x="425" 
d="M40 -99v125h175v600h-175v125h300v-850h-300z" />
    <glyph glyph-name="asciicircum" unicode="^" horiz-adv-x="650" 
d="M390 700l195 -333h-134l-126 211l-126 -211h-134l195 333h130z" />
    <glyph glyph-name="underscore" unicode="_" horiz-adv-x="470" 
d="M10 -165v125h450v-125h-450z" />
    <glyph glyph-name="grave" unicode="`" 
d="M150 741l234 -96l-32 -86l-241 73z" />
    <glyph glyph-name="a" unicode="a" horiz-adv-x="630" 
d="M445 0v66q-19 -28 -61.5 -54.5t-107.5 -26.5q-50 0 -94.5 20t-76.5 55.5t-51 85t-19 107.5t19 107.5t51 84.5t76.5 55t94.5 20q64 0 107 -27t62 -55v67h120v-505h-120zM300 100q63 0 104 42t41 111t-41 110.5t-104 41.5t-104 -41.5t-41 -110.5t41 -111t104 -42z" />
    <glyph glyph-name="b" unicode="b" horiz-adv-x="630" 
d="M185 700v-262q18 28 61.5 55t107.5 27q50 0 94.5 -20t76.5 -55t51 -84.5t19 -107.5t-19 -107.5t-51 -85t-76.5 -55.5t-94.5 -20q-65 0 -107.5 27t-61.5 55v-67h-120v700h120zM185 253q0 -69 41 -111t104 -42t104 42t41 111t-41 110.5t-104 41.5q-61 0 -102 -39.5
t-43 -105.5v-7z" />
    <glyph glyph-name="c" unicode="c" horiz-adv-x="569" 
d="M420 170l115 -36q-23 -62 -86 -105.5t-150 -43.5q-57 0 -106 20t-84 55t-54.5 84.5t-19.5 107.5t19.5 107.5t54.5 85t84 55.5t106 20q90 0 154.5 -47t85.5 -112l-111 -42q-14 40 -45.5 63t-82.5 23q-63 0 -104 -42t-41 -111t41 -110.5t104 -41.5q46 0 74 18.5t46 51.5z
" />
    <glyph glyph-name="d" unicode="d" horiz-adv-x="630" 
d="M445 0v66q-19 -28 -61.5 -54.5t-107.5 -26.5q-50 0 -94.5 20t-76.5 55.5t-51 85t-19 107.5t19 107.5t51 84.5t76.5 55t94.5 20q64 0 107 -27t62 -55v262h120v-700h-120zM445 253q0 69 -41 110.5t-104 41.5t-104 -41.5t-41 -110.5t41 -111t104 -42t104 42t41 111z" />
    <glyph glyph-name="e" unicode="e" horiz-adv-x="585" 
d="M300 100q42 0 74.5 18.5t48.5 52.5l113 -37q-31 -75 -97 -112t-140 -37q-57 0 -105.5 19.5t-83.5 54.5t-55 84.5t-20 108.5q0 58 19.5 107.5t54.5 85t84 55.5t106 20q59 0 107 -20.5t81 -56.5t50.5 -85t17.5 -106q0 -16 -1 -26.5l-1 -10.5h-394q5 -43 43 -79t98 -36z
M434 302q-4 18 -13 36t-25 33t-39.5 24.5t-56.5 9.5q-31 0 -55.5 -10t-41 -25t-27.5 -33.5t-15 -34.5h273z" />
    <glyph glyph-name="f" unicode="f" horiz-adv-x="346" 
d="M282 715q17 0 35.5 -2l18.5 -2v-111h-53q-43 0 -59.5 -18.5t-16.5 -55.5v-21h120v-115h-120v-390h-120v390h-77v115h77v40q0 82 49.5 126t145.5 44z" />
    <glyph glyph-name="g" unicode="g" horiz-adv-x="602" 
d="M417 97q-17 -26 -57 -51.5t-102 -25.5q-47 0 -88 18.5t-71 51.5t-47 79.5t-17 101.5q0 54 17 100t47 79t71 51.5t88 18.5q61 0 102 -26t57 -52v63h120v-443q0 -121 -70.5 -186.5t-189.5 -65.5q-55 0 -96.5 14.5t-70.5 36t-47.5 45.5t-27.5 42l103 61q5 -11 15 -25.5
t26.5 -27.5t41 -22t56.5 -9q60 0 100 31.5t40 105.5v35zM416 270q0 61 -37 98.5t-93 37.5t-93 -37.5t-37 -98.5q0 -62 37 -99.5t93 -37.5t93 37.5t37 99.5z" />
    <glyph glyph-name="h" unicode="h" horiz-adv-x="624" 
d="M444 0v280q0 58 -33.5 91.5t-90.5 33.5q-56 0 -95.5 -34t-39.5 -106v-265h-120v700h120v-274q6 11 19.5 27.5t35 31t50 25t63.5 10.5q101 0 156.5 -62t54.5 -170v-288h-120z" />
    <glyph glyph-name="i" unicode="i" horiz-adv-x="260" 
d="M51 642q0 34 23 56.5t56 22.5t56 -22.5t23 -56.5t-23 -56.5t-56 -22.5t-56 22.5t-23 56.5zM70 0v505h120v-505h-120z" />
    <glyph glyph-name="j" unicode="j" horiz-adv-x="255" 
d="M51 642q0 34 23 56.5t56 22.5t56 -22.5t23 -56.5t-23 -56.5t-56 -22.5t-56 22.5t-23 56.5zM70 3v502h120v-524q0 -96 -45.5 -133.5t-137.5 -37.5q-12 0 -24 1l-12 1v112h23q41 0 58.5 16.5t17.5 62.5z" />
    <glyph glyph-name="k" unicode="k" horiz-adv-x="556" 
d="M65 0v700h120v-401l185 206h151l-168 -185l198 -320h-144l-136 230l-86 -95v-135h-120z" />
    <glyph glyph-name="l" unicode="l" horiz-adv-x="250" 
d="M65 0v700h120v-700h-120z" />
    <glyph glyph-name="m" unicode="m" horiz-adv-x="1003" 
d="M823 0v280q0 58 -33.5 91.5t-90.5 33.5q-56 0 -95.5 -34t-39.5 -106v-265h-120v280q0 58 -33.5 91.5t-90.5 33.5q-56 0 -95.5 -34t-39.5 -106v-265h-120v505h120v-79q6 11 19.5 27.5t35 31t50 25t63.5 10.5q71 0 120 -31t71 -87q24 45 70 81.5t118 36.5q101 0 156 -62
t55 -170v-288h-120z" />
    <glyph glyph-name="n" unicode="n" horiz-adv-x="624" 
d="M444 0v280q0 58 -33.5 91.5t-90.5 33.5q-56 0 -95.5 -34t-39.5 -106v-265h-120v505h120v-79q6 11 19.5 27.5t35 31t50 25t63.5 10.5q101 0 156 -62t55 -170v-288h-120z" />
    <glyph glyph-name="o" unicode="o" horiz-adv-x="600" 
d="M565 252q0 -58 -20 -107.5t-55 -84.5t-84 -55t-106 -20q-58 0 -107 20t-84 55t-54.5 84.5t-19.5 107.5t19.5 107.5t54.5 85t84 55.5t107 20q57 0 106 -20t84 -55.5t55 -85t20 -107.5zM445 252q0 69 -41 111t-104 42t-104 -42t-41 -111t41 -110.5t104 -41.5
q62 0 103.5 41.5t41.5 110.5z" />
    <glyph glyph-name="p" unicode="p" horiz-adv-x="630" 
d="M185 505v-67q18 28 61.5 55t107.5 27q50 0 94.5 -20t76.5 -55t51 -84.5t19 -107.5t-19 -107.5t-51 -85t-76.5 -55.5t-94.5 -20q-65 0 -107.5 26.5t-61.5 54.5v-241h-120v680h120zM185 253q0 -69 41 -111t104 -42t104 42t41 111t-41 110.5t-104 41.5q-61 0 -102 -39.5
t-43 -105.5v-7z" />
    <glyph glyph-name="q" unicode="q" horiz-adv-x="630" 
d="M445 -175v241q-19 -28 -61.5 -54.5t-107.5 -26.5q-50 0 -94.5 20t-76.5 55.5t-51 85t-19 107.5t19 107.5t51 84.5t76.5 55t94.5 20q64 0 107 -27t62 -55v67h120v-680h-120zM445 253q0 69 -41 110.5t-104 41.5t-104 -41.5t-41 -110.5t41 -111t104 -42t104 42t41 111z" />
    <glyph glyph-name="r" unicode="r" horiz-adv-x="369" 
d="M359 515v-124h-52q-62 0 -92 -33t-30 -108v-250h-120v505h120v-83q19 47 55 70t95 23h24z" />
    <glyph glyph-name="s" unicode="s" horiz-adv-x="507" 
d="M261 -15q-68 0 -113.5 20.5t-72.5 45t-38.5 45l-11.5 20.5l97 70l7 -13.5t23 -29.5t43 -29.5t66 -13.5q58 0 82 15t24 36q0 20 -17 28t-48 11l-88 9q-71 6 -119.5 45.5t-48.5 109.5q0 40 17.5 71.5t46 52t65.5 31.5t76 11q57 0 98 -18t66.5 -39.5t37 -39.5l11.5 -18
l-93 -68l-5.5 10.5t-18.5 23.5t-36.5 23.5t-59.5 10.5q-39 0 -65 -14t-26 -37q0 -20 14 -29t49 -13l87 -10q73 -8 122.5 -43t49.5 -105q0 -39 -19 -70.5t-50 -53t-71 -33.5t-81 -12z" />
    <glyph glyph-name="t" unicode="t" horiz-adv-x="356" 
d="M247 0q-48 0 -79 15t-49 41t-25 62t-7 77v195h-77v115h77v150h120v-150h116v-115h-116v-177q0 -43 14.5 -70.5t58.5 -27.5h46v-115h-79z" />
    <glyph glyph-name="u" unicode="u" horiz-adv-x="624" 
d="M181 505v-280q0 -58 33.5 -91.5t90.5 -33.5q56 0 95.5 33.5t39.5 105.5v266h120v-505h-120v79q-6 -11 -19.5 -27.5t-35 -31t-50 -25t-63.5 -10.5q-101 0 -156.5 62t-54.5 170v288h120z" />
    <glyph glyph-name="v" unicode="v" horiz-adv-x="524" 
d="M5 505h128l126 -391l132 391h128l-181 -505h-158z" />
    <glyph glyph-name="w" unicode="w" horiz-adv-x="769" 
d="M321 505h127l101 -391l87 391h128l-136 -505h-158l-86 345l-85 -345h-158l-136 505h128l87 -391z" />
    <glyph glyph-name="x" unicode="x" horiz-adv-x="479" 
d="M346 0l-107 178l-106 -178h-128l154 257l-147 248h128l99 -175l100 175h127l-147 -248l155 -257h-128z" />
    <glyph glyph-name="y" unicode="y" horiz-adv-x="529" 
d="M401 505h123l-200 -504l1 -1h-1l-69 -175h-120l70 180l-200 500h123l136 -350z" />
    <glyph glyph-name="z" unicode="z" horiz-adv-x="504" 
d="M54 390v115h401v-115l-256 -275h270v-115h-419v115l255 275h-251z" />
    <glyph glyph-name="braceleft" unicode="{" horiz-adv-x="424" 
d="M265 452q7 -46 -3 -78.5t-53 -47.5q43 -15 53 -47.5t3 -78.5l-30 -178h124v-121h-100q-91 0 -124.5 49.5t-20.5 120.5l26 145q4 20 -5 35t-30 15h-45v121h45q21 0 30 14.5t5 35.5l-26 144q-13 71 20.5 120.5t124.5 49.5h100v-121h-124z" />
    <glyph glyph-name="bar" unicode="|" horiz-adv-x="295" 
d="M85 -100v900h125v-900h-125z" />
    <glyph glyph-name="braceright" unicode="}" horiz-adv-x="424" 
d="M159 452l30 178h-124v121h100q91 0 124.5 -49.5t20.5 -120.5l-26 -144q-4 -21 5 -35.5t30 -14.5h45v-121h-45q-21 0 -30 -15t-5 -35l26 -145q13 -71 -20.5 -120.5t-124.5 -49.5h-100v121h124l-30 178q-7 46 3 78.5t53 47.5q-43 15 -53 47.5t-3 78.5z" />
    <glyph glyph-name="asciitilde" unicode="~" horiz-adv-x="566" 
d="M65 230v125l7 5.5t21 12.5t35 12.5t49 5.5q29 0 57.5 -6.5t56.5 -15t56 -15t57 -6.5q21 0 39 6t31 13t20 13l7 6v-128l-6.5 -5t-19.5 -11.5t-33 -11.5t-48 -5q-29 0 -58.5 6.5t-58 15t-57.5 15t-58 6.5q-21 0 -39 -6t-31 -13t-20 -13z" />
    <glyph glyph-name="nbspace" unicode="&#xa0;" horiz-adv-x="280" 
 />
    <glyph glyph-name="exclamdown" unicode="&#xa1;" horiz-adv-x="314" 
d="M236 441q0 -34 -23 -56.5t-56 -22.5t-56 22.5t-23 56.5t23 56.5t56 22.5t56 -22.5t23 -56.5zM205 277l24 -472h-144l24 472h96z" />
    <glyph glyph-name="cent" unicode="&#xa2;" horiz-adv-x="746" 
d="M716 205q-29 -93 -101 -149t-168 -68v-113h-115v116q-62 11 -114 42t-89 78t-58 108t-21 131t21 131t58 108t89 78t114 42v116h115v-113q94 -11 164 -65t104 -148l-113 -52q-18 52 -57.5 89.5t-97.5 48.5v-470q59 11 99 49.5t57 92.5zM175 350q0 -89 42 -151t115 -81v464
q-73 -19 -115 -81.5t-42 -150.5z" />
    <glyph glyph-name="sterling" unicode="&#xa3;" horiz-adv-x="699" 
d="M50 290v120h83q-1 10 -2 20.5t-1 21.5q0 57 21 104.5t57 81.5t84.5 53t101.5 19q84 0 151.5 -45.5t92.5 -122.5l-115 -53q-16 48 -50 72t-79 24q-55 0 -96 -34t-41 -100q0 -10 1 -21t2 -20h190v-120h-166l26 -129l61 -15q25 -6 50.5 -12t55.5 -6q37 0 63 12.5t51 37.5
l71 -113q-34 -30 -71.5 -50t-92.5 -20q-31 0 -62 5t-62 13l-35 9q-25 7 -50.5 12.5t-55.5 5.5q-37 0 -63 -12.5t-51 -37.5l-71 113q29 25 60.5 44t74.5 24l-26 119h-107z" />
    <glyph glyph-name="currency" unicode="&#xa4;" horiz-adv-x="454" 
d="M67 377q0 16 3.5 32t9.5 30l-55 55l86 85l54 -54q14 6 30 9t32 3t32 -3t30 -10l55 55l85 -85l-55 -55q6 -14 9.5 -30t3.5 -32t-3 -32t-10 -30l54 -53l-85 -86l-54 54q-14 -6 -30 -9.5t-32 -3.5t-32 3t-30 9l-53 -53l-86 86l53 53q-6 14 -9 30t-3 32zM167 377
q0 -25 17.5 -42.5t42.5 -17.5t42.5 17.5t17.5 42.5t-17.5 42.5t-42.5 17.5t-42.5 -17.5t-17.5 -42.5z" />
    <glyph glyph-name="yen" unicode="&#xa5;" horiz-adv-x="692" 
d="M105 233h178v75h-178v115h107l-187 277h140l181 -271l181 271h140l-188 -277h107v-115h-178v-75h178v-115h-178v-118h-125v118h-178v115z" />
    <glyph glyph-name="brokenbar" unicode="&#xa6;" horiz-adv-x="295" 
d="M85 400v400h125v-400h-125zM85 -100v400h125v-400h-125z" />
    <glyph glyph-name="section" unicode="&#xa7;" horiz-adv-x="730" 
d="M377 -115q-96 0 -157.5 25t-97 54t-49 54l-13.5 25l105 76l12.5 -17t38.5 -37.5t67.5 -37.5t98.5 -17q72 0 120 16.5t48 59.5q0 34 -37.5 44.5t-82.5 14.5l-120 10q-49 4 -92 16.5t-74.5 36t-50 59t-18.5 85.5q0 37 15 72t38 57q-20 22 -34 52t-14 73q0 50 22.5 89.5
t60.5 66t88 40t104 13.5q85 0 143 -24.5t92.5 -53t49.5 -53l15 -24.5l-105 -74l-9 16.5t-31.5 35.5t-60 35.5t-94.5 16.5q-66 0 -107 -17t-41 -52q0 -32 27.5 -47.5t75.5 -19.5l120 -10q53 -4 98.5 -17t79 -37t53 -61t19.5 -89q0 -40 -13.5 -72t-38.5 -53q25 -21 38.5 -52
t13.5 -74q0 -50 -24 -88.5t-65.5 -64t-96.5 -38.5t-117 -13zM310 284l216 -20q4 4 14 20.5t10 41.5q0 37 -28.5 60.5t-79.5 27.5l-214 20q-4 -4 -15 -20.5t-11 -41.5q0 -37 28.5 -60.5t79.5 -27.5z" />
    <glyph glyph-name="dieresis" unicode="&#xa8;" 
d="M80 645q0 31 20.5 51t50.5 20t50.5 -20t20.5 -51q0 -30 -20.5 -50.5t-50.5 -20.5t-50.5 20.5t-20.5 50.5zM278 645q0 31 20.5 51t50.5 20t50.5 -20t20.5 -51q0 -30 -20.5 -50.5t-50.5 -20.5t-50.5 20.5t-20.5 50.5z" />
    <glyph glyph-name="copyright" unicode="&#xa9;" horiz-adv-x="794" 
d="M50 350q0 79 26.5 146t73 115.5t110 76t137.5 27.5t137.5 -27.5t110 -76t73 -115.5t26.5 -146t-26.5 -146t-73 -115.5t-110 -76t-137.5 -27.5t-137.5 27.5t-110 76t-73 115.5t-26.5 146zM654 350q0 125 -70.5 200t-186.5 75t-186.5 -75t-70.5 -200t70.5 -200t186.5 -75
t186.5 75t70.5 200zM571 280q-19 -50 -61 -80t-102 -30q-81 0 -132 52t-51 131q0 78 52.5 130t130.5 52q60 0 100 -28.5t62 -79.5l-81 -37q-14 28 -33 43t-50 15q-39 0 -64 -26.5t-25 -68.5q0 -43 25 -69t64 -26q33 0 52 16t32 44z" />
    <glyph glyph-name="ordfeminine" unicode="&#xaa;" horiz-adv-x="429" 
d="M316 350l-26 65h-153l-25 -65h-97l140 350h119l140 -350h-98zM172 507h84l-42 111z" />
    <glyph glyph-name="guillemotleft" unicode="&#xab;" horiz-adv-x="575" 
d="M40 255l115 250h130l-115 -250l115 -250h-130zM270 255l115 250h130l-115 -250l115 -250h-130z" />
    <glyph glyph-name="logicalnot" unicode="&#xac;" horiz-adv-x="570" 
d="M85 243v123h400v-255h-123v132h-277z" />
    <glyph glyph-name="uni00AD" unicode="&#xad;" horiz-adv-x="470" 
d="M85 200v125h300v-125h-300z" />
    <glyph glyph-name="registered" unicode="&#xae;" horiz-adv-x="794" 
d="M50 350q0 79 26.5 146t73 115.5t110 76t137.5 27.5t137.5 -27.5t110 -76t73 -115.5t26.5 -146t-26.5 -146t-73 -115.5t-110 -76t-137.5 -27.5t-137.5 27.5t-110 76t-73 115.5t-26.5 146zM654 350q0 125 -69 200t-188 75t-188 -75t-69 -200t69 -200t188 -75t188 75t69 200
zM475 175l-65 108h-78v-108h-93v350h193q61 0 99 -31.5t38 -88.5q0 -40 -18 -67t-47 -43l76 -120h-105zM436 432h-104v-57h104q20 0 30.5 7t10.5 22t-10.5 21.5t-30.5 6.5z" />
    <glyph glyph-name="macron" unicode="&#xaf;" 
d="M109 565v100h282v-100h-282z" />
    <glyph glyph-name="degree" unicode="&#xb0;" horiz-adv-x="400" 
d="M40 550q0 66 47 113t113 47t113 -47t47 -113t-47 -113t-113 -47t-113 47t-47 113zM140 550q0 -25 17.5 -42.5t42.5 -17.5t42.5 17.5t17.5 42.5t-17.5 42.5t-42.5 17.5t-42.5 -17.5t-17.5 -42.5z" />
    <glyph glyph-name="plusminus" unicode="&#xb1;" horiz-adv-x="547" 
d="M65 0v123h417v-123h-417zM65 320v123h147v147h123v-147h147v-123h-147v-147h-123v147h-147z" />
    <glyph glyph-name="twosuperior" unicode="&#xb2;" horiz-adv-x="354" 
d="M311 588q0 -45 -25.5 -73t-53.5 -53l-79 -71h155v-91h-263v51q0 54 23.5 82.5t62.5 59.5l63 51q13 11 18.5 20t5.5 19q0 15 -10.5 25.5t-27.5 10.5q-19 0 -31 -11.5t-12 -33.5v-14h-92v30q0 52 38.5 86t94.5 34q57 0 95 -35t38 -87z" />
    <glyph glyph-name="threesuperior" unicode="&#xb3;" horiz-adv-x="364" 
d="M141 578h-91q0 60 38.5 96t95.5 36q56 0 93.5 -34.5t37.5 -83.5q0 -25 -10 -46t-32 -39q22 -17 32 -39t10 -50q0 -49 -35.5 -86t-95.5 -37t-97 36.5t-37 93.5h91q0 -21 12 -32t30 -11q19 0 30 11t11 31q0 18 -12.5 28.5t-29.5 10.5h-32v85h33q19 0 30 10.5t11 28.5
q0 17 -11 27t-30 10t-30.5 -12.5t-11.5 -33.5z" />
    <glyph glyph-name="acute" unicode="&#xb4;" 
d="M356 741l39 -109l-241 -73l-32 86z" />
    <glyph glyph-name="mu" unicode="&#xb5;" horiz-adv-x="744" 
d="M74 525h125v-251q0 -39 14.5 -69.5t39 -51.5t55.5 -32t64 -11q34 0 65 11.5t54.5 33.5t38 54t14.5 73v243h125v-243q0 -68 -23.5 -123t-64 -93.5t-94.5 -59.5t-115 -21q-48 0 -92.5 13.5t-80.5 41.5v-140h-125v625z" />
    <glyph glyph-name="paragraph" unicode="&#xb6;" horiz-adv-x="750" 
d="M291 237q-50 0 -95 18t-78.5 49t-53 74t-19.5 93q0 49 19.5 91.5t52.5 72.5t77.5 47.5t94.5 17.5h176v-700h-125v237h-49zM540 0v700h125v-700h-125z" />
    <glyph glyph-name="periodcentered" unicode="&#xb7;" horiz-adv-x="310" 
d="M76 266q0 34 23 56.5t56 22.5t56 -22.5t23 -56.5t-23 -56.5t-56 -22.5t-56 22.5t-23 56.5z" />
    <glyph glyph-name="cedilla" unicode="&#xb8;" 
d="M190 -87q7 -13 23.5 -24t38.5 -11q17 0 27.5 5.5t10.5 17.5q0 9 -7 15t-17.5 10t-21.5 6t-20 3l20 78q27 -4 52 -12.5t44.5 -22.5t31 -34t11.5 -47q0 -46 -37.5 -74t-91.5 -28q-43 0 -80.5 21.5t-56.5 58.5z" />
    <glyph glyph-name="onesuperior" unicode="&#xb9;" horiz-adv-x="224" 
d="M179 300h-86v270h-73v69q38 1 58 17t25 44h76v-400z" />
    <glyph glyph-name="ordmasculine" unicode="&#xba;" horiz-adv-x="397" 
d="M203 343q-81 0 -132 52t-51 131q0 78 52.5 130t130.5 52t130.5 -52t52.5 -130q0 -79 -51 -131t-132 -52zM203 431q39 0 65 26t26 69q0 42 -26 68.5t-65 26.5t-65 -26.5t-26 -68.5q0 -43 26 -69t65 -26z" />
    <glyph glyph-name="guillemotright" unicode="&#xbb;" horiz-adv-x="575" 
d="M285 255l-115 -250h-130l115 250l-115 250h130zM515 255l-115 -250h-130l115 250l-115 250h130z" />
    <glyph glyph-name="onequarter" unicode="&#xbc;" horiz-adv-x="768" 
d="M179 300h-86v270h-73v69q38 1 58 17t25 44h76v-400zM105 0l395 700h114l-395 -700h-114zM454 168l128 232h101v-232h45v-85h-45v-83h-86v83h-143v85zM534 168h63v115z" />
    <glyph glyph-name="onehalf" unicode="&#xbd;" horiz-adv-x="811" 
d="M105 0l395 700h114l-395 -700h-114zM179 300h-86v270h-73v69q38 1 58 17t25 44h76v-400zM761 288q0 -45 -25.5 -73t-53.5 -53l-79 -71h155v-91h-263v51q0 54 23.5 82.5t62.5 59.5l63 51q13 11 18.5 20t5.5 19q0 15 -10.5 25.5t-27.5 10.5q-19 0 -31 -11.5t-12 -33.5v-14
h-92v30q0 52 38.5 86t94.5 34q57 0 95 -35t38 -87z" />
    <glyph glyph-name="threequarters" unicode="&#xbe;" horiz-adv-x="848" 
d="M141 578h-91q0 60 38.5 96t95.5 36q56 0 93.5 -34.5t37.5 -83.5q0 -25 -10 -46t-32 -39q22 -17 32 -39t10 -50q0 -49 -35.5 -86t-95.5 -37t-97 36.5t-37 93.5h91q0 -21 12 -32t30 -11q19 0 30 11t11 31q0 18 -12.5 28.5t-29.5 10.5h-32v85h33q19 0 30 10.5t11 28.5
q0 17 -11 27t-30 10t-30.5 -12.5t-11.5 -33.5zM185 0l395 700h114l-395 -700h-114zM534 168l128 232h101v-232h45v-85h-45v-83h-86v83h-143v85zM614 168h63v115z" />
    <glyph glyph-name="questiondown" unicode="&#xbf;" horiz-adv-x="585" 
d="M373 441q0 -34 -23 -56.5t-56 -22.5t-56 22.5t-23 56.5t23 56.5t56 22.5t56 -22.5t23 -56.5zM231 277h127v-132l-106 -51q-40 -19 -60 -42t-20 -53q0 -39 31 -61.5t81 -22.5q38 0 65 15t44.5 33t25.5 33l8 15l108 -57l-13.5 -25.5t-43 -56.5t-77.5 -56.5t-117 -25.5
q-53 0 -98 17.5t-77.5 47.5t-50.5 70.5t-18 84.5q0 69 42 116t101 75l48 23v53z" />
    <glyph glyph-name="Agrave" unicode="&#xc0;" horiz-adv-x="778" 
d="M623 0l-70 180h-329l-69 -180h-135l270 700h198l270 -700h-135zM272 305h233l-116 301zM251 794l26 112l250 -69l-22 -92z" />
    <glyph glyph-name="Aacute" unicode="&#xc1;" horiz-adv-x="778" 
d="M623 0l-70 180h-329l-69 -180h-135l270 700h198l270 -700h-135zM272 305h233l-116 301zM501 906l26 -112l-254 -49l-22 92z" />
    <glyph glyph-name="Acircumflex" unicode="&#xc2;" horiz-adv-x="778" 
d="M623 0l-70 180h-329l-69 -180h-135l270 700h198l270 -700h-135zM272 305h233l-116 301zM389 898l161 -61l-29 -92l-132 43l-132 -43l-29 92z" />
    <glyph glyph-name="Atilde" unicode="&#xc3;" horiz-adv-x="778" 
d="M623 0l-70 180h-329l-69 -180h-135l270 700h198l270 -700h-135zM272 305h233l-116 301zM509 889l59 -85l-8 -9t-22.5 -20.5t-34 -20.5t-43.5 -9q-18 0 -34.5 5t-32 11.5t-30.5 11.5t-30 5q-12 0 -23.5 -5t-20 -11.5t-13.5 -11.5l-5 -5l-59 85l8 9t22.5 20.5t34 20.5
t43.5 9q18 0 34.5 -5t32 -11.5t30.5 -11.5t30 -5q12 0 23.5 5t20 11.5t13.5 11.5z" />
    <glyph glyph-name="Adieresis" unicode="&#xc4;" horiz-adv-x="778" 
d="M623 0l-70 180h-329l-69 -180h-135l270 700h198l270 -700h-135zM272 305h233l-116 301zM219 810q0 31 20.5 51t50.5 20t50.5 -20t20.5 -51q0 -30 -20.5 -50.5t-50.5 -20.5t-50.5 20.5t-20.5 50.5zM417 810q0 31 20.5 51t50.5 20t50.5 -20t20.5 -51q0 -30 -20.5 -50.5
t-50.5 -20.5t-50.5 20.5t-20.5 50.5z" />
    <glyph glyph-name="Aring" unicode="&#xc5;" horiz-adv-x="778" 
d="M623 0l-70 180h-329l-69 -180h-135l270 700q-14 16 -22 37.5t-8 45.5q0 54 37.5 91.5t91.5 37.5t91.5 -37.5t37.5 -91.5q0 -24 -8 -45.5t-22 -37.5l270 -700h-135zM348 783q0 -17 12 -29t29 -12t29 12t12 29t-12 29t-29 12t-29 -12t-12 -29zM272 305h233l-116 301z" />
    <glyph glyph-name="AE" unicode="&#xc6;" horiz-adv-x="1138" 
d="M1058 575h-395v-162h390v-124h-390v-164h400v-125h-525v180h-295l-83 -180h-140l330 700h708v-125zM299 305h239v270h-116z" />
    <glyph glyph-name="Ccedilla" unicode="&#xc7;" horiz-adv-x="756" 
d="M716 205q-33 -104 -119.5 -162t-199.5 -58q-74 0 -137.5 27.5t-110 76t-73 115.5t-26.5 146t26.5 146t73 115.5t110 76t137.5 27.5q112 0 196.5 -55t121.5 -161l-113 -52q-21 63 -74 103t-131 40q-101 0 -161.5 -66.5t-60.5 -173.5t60.5 -173.5t161.5 -66.5q80 0 133 41
t73 106zM318 -87q7 -13 23.5 -24t38.5 -11q17 0 27.5 5.5t10.5 17.5q0 9 -7 15t-17.5 10t-21.5 6t-20 3l20 78q27 -4 52 -12.5t44.5 -22.5t31 -34t11.5 -47q0 -46 -37.5 -74t-91.5 -28q-43 0 -80.5 21.5t-56.5 58.5z" />
    <glyph glyph-name="Egrave" unicode="&#xc8;" horiz-adv-x="735" 
d="M655 575h-445v-162h435v-124h-435v-164h450v-125h-575v700h570v-125zM239 794l26 112l250 -69l-22 -92z" />
    <glyph glyph-name="Eacute" unicode="&#xc9;" horiz-adv-x="735" 
d="M655 575h-445v-162h435v-124h-435v-164h450v-125h-575v700h570v-125zM489 906l26 -112l-254 -49l-22 92z" />
    <glyph glyph-name="Ecircumflex" unicode="&#xca;" horiz-adv-x="735" 
d="M655 575h-445v-162h435v-124h-435v-164h450v-125h-575v700h570v-125zM377 898l161 -61l-29 -92l-132 43l-132 -43l-29 92z" />
    <glyph glyph-name="Edieresis" unicode="&#xcb;" horiz-adv-x="735" 
d="M655 575h-445v-162h435v-124h-435v-164h450v-125h-575v700h570v-125zM207 810q0 31 20.5 51t50.5 20t50.5 -20t20.5 -51q0 -30 -20.5 -50.5t-50.5 -20.5t-50.5 20.5t-20.5 50.5zM405 810q0 31 20.5 51t50.5 20t50.5 -20t20.5 -51q0 -30 -20.5 -50.5t-50.5 -20.5
t-50.5 20.5t-20.5 50.5z" />
    <glyph glyph-name="Igrave" unicode="&#xcc;" horiz-adv-x="295" 
d="M85 0v700h125v-700h-125zM10 794l26 112l250 -69l-22 -92z" />
    <glyph glyph-name="Iacute" unicode="&#xcd;" horiz-adv-x="295" 
d="M85 0v700h125v-700h-125zM260 906l26 -112l-254 -49l-22 92z" />
    <glyph glyph-name="Icircumflex" unicode="&#xce;" horiz-adv-x="295" 
d="M85 0v700h125v-700h-125zM148 898l161 -61l-29 -92l-132 43l-132 -43l-29 92z" />
    <glyph glyph-name="Idieresis" unicode="&#xcf;" horiz-adv-x="295" 
d="M85 0v700h125v-700h-125zM-22 810q0 31 20.5 51t50.5 20t50.5 -20t20.5 -51q0 -30 -20.5 -50.5t-50.5 -20.5t-50.5 20.5t-20.5 50.5zM176 810q0 31 20.5 51t50.5 20t50.5 -20t20.5 -51q0 -30 -20.5 -50.5t-50.5 -20.5t-50.5 20.5t-20.5 50.5z" />
    <glyph glyph-name="Eth" unicode="&#xd0;" horiz-adv-x="765" 
d="M368 700q74 0 137.5 -26t110 -72t73 -110.5t26.5 -141.5t-26.5 -141.5t-73 -110.5t-110 -72t-137.5 -26h-283v286h-65v125h65v289h283zM370 411v-125h-160v-161h158q101 0 161.5 61t60.5 164t-60.5 164t-161.5 61h-158v-164h160z" />
    <glyph glyph-name="Ntilde" unicode="&#xd1;" horiz-adv-x="817" 
d="M526 0l-316 590v-590h-125v700h206l316 -590v590h125v-700h-206zM529 889l59 -85l-8 -9t-22.5 -20.5t-34 -20.5t-43.5 -9q-18 0 -34.5 5t-32 11.5t-30.5 11.5t-30 5q-12 0 -23.5 -5t-20 -11.5t-13.5 -11.5l-5 -5l-59 85l8 9t22.5 20.5t34 20.5t43.5 9q18 0 34.5 -5
t32 -11.5t30.5 -11.5t30 -5q12 0 23.5 5t20 11.5t13.5 11.5z" />
    <glyph glyph-name="Ograve" unicode="&#xd2;" horiz-adv-x="794" 
d="M50 350q0 79 26.5 146t73 115.5t110 76t137.5 27.5t137.5 -27.5t110 -76t73 -115.5t26.5 -146t-26.5 -146t-73 -115.5t-110 -76t-137.5 -27.5t-137.5 27.5t-110 76t-73 115.5t-26.5 146zM619 350q0 107 -60.5 173.5t-161.5 66.5t-161.5 -66.5t-60.5 -173.5t60.5 -173.5
t161.5 -66.5t161.5 66.5t60.5 173.5zM259 794l26 112l250 -69l-22 -92z" />
    <glyph glyph-name="Oacute" unicode="&#xd3;" horiz-adv-x="794" 
d="M50 350q0 79 26.5 146t73 115.5t110 76t137.5 27.5t137.5 -27.5t110 -76t73 -115.5t26.5 -146t-26.5 -146t-73 -115.5t-110 -76t-137.5 -27.5t-137.5 27.5t-110 76t-73 115.5t-26.5 146zM619 350q0 107 -60.5 173.5t-161.5 66.5t-161.5 -66.5t-60.5 -173.5t60.5 -173.5
t161.5 -66.5t161.5 66.5t60.5 173.5zM509 906l26 -112l-254 -49l-22 92z" />
    <glyph glyph-name="Ocircumflex" unicode="&#xd4;" horiz-adv-x="794" 
d="M50 350q0 79 26.5 146t73 115.5t110 76t137.5 27.5t137.5 -27.5t110 -76t73 -115.5t26.5 -146t-26.5 -146t-73 -115.5t-110 -76t-137.5 -27.5t-137.5 27.5t-110 76t-73 115.5t-26.5 146zM619 350q0 107 -60.5 173.5t-161.5 66.5t-161.5 -66.5t-60.5 -173.5t60.5 -173.5
t161.5 -66.5t161.5 66.5t60.5 173.5zM397 898l161 -61l-29 -92l-132 43l-132 -43l-29 92z" />
    <glyph glyph-name="Otilde" unicode="&#xd5;" horiz-adv-x="794" 
d="M50 350q0 79 26.5 146t73 115.5t110 76t137.5 27.5t137.5 -27.5t110 -76t73 -115.5t26.5 -146t-26.5 -146t-73 -115.5t-110 -76t-137.5 -27.5t-137.5 27.5t-110 76t-73 115.5t-26.5 146zM619 350q0 107 -60.5 173.5t-161.5 66.5t-161.5 -66.5t-60.5 -173.5t60.5 -173.5
t161.5 -66.5t161.5 66.5t60.5 173.5zM517 889l59 -85l-8 -9t-22.5 -20.5t-34 -20.5t-43.5 -9q-18 0 -34.5 5t-32 11.5t-30.5 11.5t-30 5q-12 0 -23.5 -5t-20 -11.5t-13.5 -11.5l-5 -5l-59 85l8 9t22.5 20.5t34 20.5t43.5 9q18 0 34.5 -5t32 -11.5t30.5 -11.5t30 -5
q12 0 23.5 5t20 11.5t13.5 11.5z" />
    <glyph glyph-name="Odieresis" unicode="&#xd6;" horiz-adv-x="794" 
d="M50 350q0 79 26.5 146t73 115.5t110 76t137.5 27.5t137.5 -27.5t110 -76t73 -115.5t26.5 -146t-26.5 -146t-73 -115.5t-110 -76t-137.5 -27.5t-137.5 27.5t-110 76t-73 115.5t-26.5 146zM619 350q0 107 -60.5 173.5t-161.5 66.5t-161.5 -66.5t-60.5 -173.5t60.5 -173.5
t161.5 -66.5t161.5 66.5t60.5 173.5zM227 810q0 31 20.5 51t50.5 20t50.5 -20t20.5 -51q0 -30 -20.5 -50.5t-50.5 -20.5t-50.5 20.5t-20.5 50.5zM425 810q0 31 20.5 51t50.5 20t50.5 -20t20.5 -51q0 -30 -20.5 -50.5t-50.5 -20.5t-50.5 20.5t-20.5 50.5z" />
    <glyph glyph-name="multiply" unicode="&#xd7;" horiz-adv-x="524" 
d="M152 110l-87 87l110 111l-110 110l87 87l110 -110l110 110l87 -87l-110 -110l110 -111l-87 -87l-110 110z" />
    <glyph glyph-name="Oslash" unicode="&#xd8;" horiz-adv-x="794" 
d="M50 350q0 79 26.5 146t73 115.5t110 76t137.5 27.5q54 0 103 -15t89 -42l57 67l84 -70l-61 -73q35 -46 55 -105.5t20 -126.5q0 -79 -26.5 -146t-73 -115.5t-110 -76t-137.5 -27.5q-52 0 -99 13.5t-87 38.5l-61 -72l-84 70l63 76q-37 46 -58 107.5t-21 131.5zM397 590
q-101 0 -161.5 -66.5t-60.5 -173.5q0 -41 9.5 -77.5t26.5 -64.5l298 354q-24 13 -52.5 20.5t-59.5 7.5zM619 350q0 38 -8 72t-24 62l-295 -350q22 -12 48.5 -18t56.5 -6q101 0 161.5 66.5t60.5 173.5z" />
    <glyph glyph-name="Ugrave" unicode="&#xd9;" horiz-adv-x="744" 
d="M669 700v-418q0 -68 -23.5 -123t-64 -93.5t-94.5 -59.5t-115 -21t-115 21t-94.5 59.5t-64 93.5t-23.5 123v418h125v-418q0 -41 14.5 -73t38 -54t54.5 -33.5t65 -11.5t65 11.5t54.5 33.5t38 54t14.5 73v418h125zM234 794l26 112l250 -69l-22 -92z" />
    <glyph glyph-name="Uacute" unicode="&#xda;" horiz-adv-x="744" 
d="M669 700v-418q0 -68 -23.5 -123t-64 -93.5t-94.5 -59.5t-115 -21t-115 21t-94.5 59.5t-64 93.5t-23.5 123v418h125v-418q0 -41 14.5 -73t38 -54t54.5 -33.5t65 -11.5t65 11.5t54.5 33.5t38 54t14.5 73v418h125zM484 906l26 -112l-254 -49l-22 92z" />
    <glyph glyph-name="Ucircumflex" unicode="&#xdb;" horiz-adv-x="744" 
d="M669 700v-418q0 -68 -23.5 -123t-64 -93.5t-94.5 -59.5t-115 -21t-115 21t-94.5 59.5t-64 93.5t-23.5 123v418h125v-418q0 -41 14.5 -73t38 -54t54.5 -33.5t65 -11.5t65 11.5t54.5 33.5t38 54t14.5 73v418h125zM372 898l161 -61l-29 -92l-132 43l-132 -43l-29 92z" />
    <glyph glyph-name="Udieresis" unicode="&#xdc;" horiz-adv-x="744" 
d="M669 700v-418q0 -68 -23.5 -123t-64 -93.5t-94.5 -59.5t-115 -21t-115 21t-94.5 59.5t-64 93.5t-23.5 123v418h125v-418q0 -41 14.5 -73t38 -54t54.5 -33.5t65 -11.5t65 11.5t54.5 33.5t38 54t14.5 73v418h125zM202 810q0 31 20.5 51t50.5 20t50.5 -20t20.5 -51
q0 -30 -20.5 -50.5t-50.5 -20.5t-50.5 20.5t-20.5 50.5zM400 810q0 31 20.5 51t50.5 20t50.5 -20t20.5 -51q0 -30 -20.5 -50.5t-50.5 -20.5t-50.5 20.5t-20.5 50.5z" />
    <glyph glyph-name="Yacute" unicode="&#xdd;" horiz-adv-x="692" 
d="M408 0h-125v218l-258 482h135l186 -349l186 349h135l-259 -482v-218zM458 906l26 -112l-254 -49l-22 92z" />
    <glyph glyph-name="Thorn" unicode="&#xde;" horiz-adv-x="735" 
d="M85 0v700h125v-110h231q50 0 94.5 -17.5t77.5 -47.5t52.5 -72.5t19.5 -91.5q0 -50 -19.5 -93t-53 -74t-78.5 -49t-95 -18h-229v-127h-125zM438 465h-228v-214h228q56 0 89 29.5t33 77.5t-33 77.5t-89 29.5z" />
    <glyph glyph-name="germandbls" unicode="&#xdf;" horiz-adv-x="650" 
d="M65 430q0 57 17 106.5t50 85.5t82 57t112 21q57 0 102 -16t75 -43.5t46 -64.5t16 -79t-11 -71t-35 -57q53 -27 74.5 -75.5t21.5 -92.5q0 -42 -15.5 -80t-44.5 -66t-69.5 -45t-89.5 -17q-34 0 -62.5 7t-58.5 18l24 121q23 -9 42 -15t45 -6q52 0 78 26.5t26 59.5t-24 59
t-73 26h-88v124h44q40 0 65.5 21.5t25.5 54.5q0 40 -28.5 63t-84.5 23q-70 0 -103.5 -38.5t-33.5 -112.5v-424h-125v430z" />
    <glyph glyph-name="agrave" unicode="&#xe0;" horiz-adv-x="630" 
d="M445 0v66q-19 -28 -61.5 -54.5t-107.5 -26.5q-50 0 -94.5 20t-76.5 55.5t-51 85t-19 107.5t19 107.5t51 84.5t76.5 55t94.5 20q64 0 107 -27t62 -55v67h120v-505h-120zM300 100q63 0 104 42t41 111t-41 110.5t-104 41.5t-104 -41.5t-41 -110.5t41 -111t104 -42zM213 741
l234 -96l-32 -86l-241 73z" />
    <glyph glyph-name="aacute" unicode="&#xe1;" horiz-adv-x="630" 
d="M445 0v66q-19 -28 -61.5 -54.5t-107.5 -26.5q-50 0 -94.5 20t-76.5 55.5t-51 85t-19 107.5t19 107.5t51 84.5t76.5 55t94.5 20q64 0 107 -27t62 -55v67h120v-505h-120zM300 100q63 0 104 42t41 111t-41 110.5t-104 41.5t-104 -41.5t-41 -110.5t41 -111t104 -42zM407 741
l39 -109l-241 -73l-32 86z" />
    <glyph glyph-name="acircumflex" unicode="&#xe2;" horiz-adv-x="630" 
d="M445 0v66q-19 -28 -61.5 -54.5t-107.5 -26.5q-50 0 -94.5 20t-76.5 55.5t-51 85t-19 107.5t19 107.5t51 84.5t76.5 55t94.5 20q64 0 107 -27t62 -55v67h120v-505h-120zM300 100q63 0 104 42t41 111t-41 110.5t-104 41.5t-104 -41.5t-41 -110.5t41 -111t104 -42zM476 634
l-46 -78l-130 68l-130 -68l-46 78l176 105z" />
    <glyph glyph-name="atilde" unicode="&#xe3;" horiz-adv-x="630" 
d="M445 0v66q-19 -28 -61.5 -54.5t-107.5 -26.5q-50 0 -94.5 20t-76.5 55.5t-51 85t-19 107.5t19 107.5t51 84.5t76.5 55t94.5 20q64 0 107 -27t62 -55v67h120v-505h-120zM300 100q63 0 104 42t41 111t-41 110.5t-104 41.5t-104 -41.5t-41 -110.5t41 -111t104 -42zM358 569
q-19 0 -34.5 5.5t-30 12t-29 12t-30.5 5.5q-19 0 -33 -11.5t-24 -23.5l-45 81q6 7 16.5 17t24 19.5t30 16t34.5 6.5q19 0 34.5 -5.5t30 -12t28.5 -12t30 -5.5q20 0 34.5 12t24.5 23l45 -81q-6 -7 -16.5 -17t-24.5 -19.5t-30.5 -16t-34.5 -6.5z" />
    <glyph glyph-name="adieresis" unicode="&#xe4;" horiz-adv-x="630" 
d="M445 0v66q-19 -28 -61.5 -54.5t-107.5 -26.5q-50 0 -94.5 20t-76.5 55.5t-51 85t-19 107.5t19 107.5t51 84.5t76.5 55t94.5 20q64 0 107 -27t62 -55v67h120v-505h-120zM300 100q63 0 104 42t41 111t-41 110.5t-104 41.5t-104 -41.5t-41 -110.5t41 -111t104 -42zM130 645
q0 31 20.5 51t50.5 20t50.5 -20t20.5 -51q0 -30 -20.5 -50.5t-50.5 -20.5t-50.5 20.5t-20.5 50.5zM328 645q0 31 20.5 51t50.5 20t50.5 -20t20.5 -51q0 -30 -20.5 -50.5t-50.5 -20.5t-50.5 20.5t-20.5 50.5z" />
    <glyph glyph-name="aring" unicode="&#xe5;" horiz-adv-x="630" 
d="M445 0v66q-19 -28 -61.5 -54.5t-107.5 -26.5q-50 0 -94.5 20t-76.5 55.5t-51 85t-19 107.5t19 107.5t51 84.5t76.5 55t94.5 20q64 0 107 -27t62 -55v67h120v-505h-120zM300 100q63 0 104 42t41 111t-41 110.5t-104 41.5t-104 -41.5t-41 -110.5t41 -111t104 -42zM183 677
q0 49 34 83t83 34t83.5 -34t34.5 -83t-34.5 -83.5t-83.5 -34.5t-83 34.5t-34 83.5zM259 676q0 -17 12 -29t29 -12t29 12t12 29t-12 29t-29 12t-29 -12t-12 -29z" />
    <glyph glyph-name="ae" unicode="&#xe6;" horiz-adv-x="991" 
d="M445 0v66q-19 -28 -61.5 -54.5t-107.5 -26.5q-50 0 -94.5 20t-76.5 55.5t-51 85t-19 107.5t19 107.5t51 84.5t76.5 55t94.5 20q64 0 107 -27t62 -55v67h120v-21q30 17 65 26.5t75 9.5q59 0 107 -20.5t81 -56.5t50.5 -85t17.5 -106q0 -16 -1 -26.5l-1 -10.5h-394
q5 -43 43 -79t98 -36q42 0 74.5 18.5t48.5 52.5l113 -37q-31 -75 -97 -112t-140 -37q-39 0 -74.5 9.5t-65.5 27.5v-22h-120zM840 302q-4 18 -13 36t-25 33t-39.5 24.5t-56.5 9.5q-31 0 -55.5 -10t-41 -25t-27.5 -33.5t-15 -34.5h273zM300 100q63 0 104 42t41 111t-41 110.5
t-104 41.5t-104 -41.5t-41 -110.5t41 -111t104 -42z" />
    <glyph glyph-name="ccedilla" unicode="&#xe7;" horiz-adv-x="569" 
d="M420 170l115 -36q-23 -62 -86 -105.5t-150 -43.5q-57 0 -106 20t-84 55t-54.5 84.5t-19.5 107.5t19.5 107.5t54.5 85t84 55.5t106 20q90 0 154.5 -47t85.5 -112l-111 -42q-14 40 -45.5 63t-82.5 23q-63 0 -104 -42t-41 -111t41 -110.5t104 -41.5q46 0 74 18.5t46 51.5z
M236 -97q7 -13 23.5 -24t38.5 -11q17 0 27.5 5.5t10.5 17.5q0 9 -7 15t-17.5 10t-21.5 6t-20 3l20 78q27 -4 52 -12.5t44.5 -22.5t31 -34t11.5 -47q0 -46 -37.5 -74t-91.5 -28q-43 0 -80.5 21.5t-56.5 58.5z" />
    <glyph glyph-name="egrave" unicode="&#xe8;" horiz-adv-x="585" 
d="M300 100q42 0 74.5 18.5t48.5 52.5l113 -37q-31 -75 -97 -112t-140 -37q-57 0 -105.5 19.5t-83.5 54.5t-55 84.5t-20 108.5q0 58 19.5 107.5t54.5 85t84 55.5t106 20q59 0 107 -20.5t81 -56.5t50.5 -85t17.5 -106q0 -16 -1 -26.5l-1 -10.5h-394q5 -43 43 -79t98 -36z
M434 302q-4 18 -13 36t-25 33t-39.5 24.5t-56.5 9.5q-31 0 -55.5 -10t-41 -25t-27.5 -33.5t-15 -34.5h273zM208 741l234 -96l-32 -86l-241 73z" />
    <glyph glyph-name="eacute" unicode="&#xe9;" horiz-adv-x="585" 
d="M300 100q42 0 74.5 18.5t48.5 52.5l113 -37q-31 -75 -97 -112t-140 -37q-57 0 -105.5 19.5t-83.5 54.5t-55 84.5t-20 108.5q0 58 19.5 107.5t54.5 85t84 55.5t106 20q59 0 107 -20.5t81 -56.5t50.5 -85t17.5 -106q0 -16 -1 -26.5l-1 -10.5h-394q5 -43 43 -79t98 -36z
M434 302q-4 18 -13 36t-25 33t-39.5 24.5t-56.5 9.5q-31 0 -55.5 -10t-41 -25t-27.5 -33.5t-15 -34.5h273zM402 741l39 -109l-241 -73l-32 86z" />
    <glyph glyph-name="ecircumflex" unicode="&#xea;" horiz-adv-x="585" 
d="M300 100q42 0 74.5 18.5t48.5 52.5l113 -37q-31 -75 -97 -112t-140 -37q-57 0 -105.5 19.5t-83.5 54.5t-55 84.5t-20 108.5q0 58 19.5 107.5t54.5 85t84 55.5t106 20q59 0 107 -20.5t81 -56.5t50.5 -85t17.5 -106q0 -16 -1 -26.5l-1 -10.5h-394q5 -43 43 -79t98 -36z
M434 302q-4 18 -13 36t-25 33t-39.5 24.5t-56.5 9.5q-31 0 -55.5 -10t-41 -25t-27.5 -33.5t-15 -34.5h273zM471 634l-46 -78l-130 68l-130 -68l-46 78l176 105z" />
    <glyph glyph-name="edieresis" unicode="&#xeb;" horiz-adv-x="585" 
d="M300 100q42 0 74.5 18.5t48.5 52.5l113 -37q-31 -75 -97 -112t-140 -37q-57 0 -105.5 19.5t-83.5 54.5t-55 84.5t-20 108.5q0 58 19.5 107.5t54.5 85t84 55.5t106 20q59 0 107 -20.5t81 -56.5t50.5 -85t17.5 -106q0 -16 -1 -26.5l-1 -10.5h-394q5 -43 43 -79t98 -36z
M434 302q-4 18 -13 36t-25 33t-39.5 24.5t-56.5 9.5q-31 0 -55.5 -10t-41 -25t-27.5 -33.5t-15 -34.5h273zM125 645q0 31 20.5 51t50.5 20t50.5 -20t20.5 -51q0 -30 -20.5 -50.5t-50.5 -20.5t-50.5 20.5t-20.5 50.5zM323 645q0 31 20.5 51t50.5 20t50.5 -20t20.5 -51
q0 -30 -20.5 -50.5t-50.5 -20.5t-50.5 20.5t-20.5 50.5z" />
    <glyph glyph-name="igrave" unicode="&#xec;" horiz-adv-x="260" 
d="M70 0v505h120v-505h-120zM42 741l234 -96l-32 -86l-241 73z" />
    <glyph glyph-name="iacute" unicode="&#xed;" horiz-adv-x="260" 
d="M70 0v505h120v-505h-120zM236 741l39 -109l-241 -73l-32 86z" />
    <glyph glyph-name="icircumflex" unicode="&#xee;" horiz-adv-x="260" 
d="M70 0v505h120v-505h-120zM305 634l-46 -78l-130 68l-130 -68l-46 78l176 105z" />
    <glyph glyph-name="idieresis" unicode="&#xef;" horiz-adv-x="260" 
d="M70 0v505h120v-505h-120zM-41 645q0 31 20.5 51t50.5 20t50.5 -20t20.5 -51q0 -30 -20.5 -50.5t-50.5 -20.5t-50.5 20.5t-20.5 50.5zM157 645q0 31 20.5 51t50.5 20t50.5 -20t20.5 -51q0 -30 -20.5 -50.5t-50.5 -20.5t-50.5 20.5t-20.5 50.5z" />
    <glyph glyph-name="eth" unicode="&#xf0;" horiz-adv-x="605" 
d="M300 -15q-58 0 -107 18.5t-84 52t-54.5 80.5t-19.5 104t19 103.5t51 78.5t76.5 50t94.5 18q48 0 95.5 -22.5t73.5 -76.5q-10 42 -33 81.5t-54 76.5l-131 -27l-16 81l78 16q-25 22 -53 42t-56 39h137q22 -14 43 -28.5t40 -30.5l137 28l16 -80l-84 -17q51 -63 76 -139
t25 -163q0 -134 -74 -209.5t-196 -75.5zM300 100q62 0 103.5 37t41.5 103t-41 100.5t-104 34.5t-104 -34.5t-41 -100.5t41 -103t104 -37z" />
    <glyph glyph-name="ntilde" unicode="&#xf1;" horiz-adv-x="624" 
d="M444 0v280q0 58 -33.5 91.5t-90.5 33.5q-56 0 -95.5 -34t-39.5 -106v-265h-120v505h120v-79q6 11 19.5 27.5t35 31t50 25t63.5 10.5q101 0 156 -62t55 -170v-288h-120zM377 569q-19 0 -34.5 5.5t-30 12t-29 12t-30.5 5.5q-19 0 -33 -11.5t-24 -23.5l-45 81q6 7 16.5 17
t24 19.5t30 16t34.5 6.5q19 0 34.5 -5.5t30 -12t28.5 -12t30 -5.5q20 0 34.5 12t24.5 23l45 -81q-6 -7 -16.5 -17t-24.5 -19.5t-30.5 -16t-34.5 -6.5z" />
    <glyph glyph-name="ograve" unicode="&#xf2;" horiz-adv-x="600" 
d="M565 252q0 -58 -20 -107.5t-55 -84.5t-84 -55t-106 -20q-58 0 -107 20t-84 55t-54.5 84.5t-19.5 107.5t19.5 107.5t54.5 85t84 55.5t107 20q57 0 106 -20t84 -55.5t55 -85t20 -107.5zM445 252q0 69 -41 111t-104 42t-104 -42t-41 -111t41 -110.5t104 -41.5
q62 0 103.5 41.5t41.5 110.5zM213 741l234 -96l-32 -86l-241 73z" />
    <glyph glyph-name="oacute" unicode="&#xf3;" horiz-adv-x="600" 
d="M565 252q0 -58 -20 -107.5t-55 -84.5t-84 -55t-106 -20q-58 0 -107 20t-84 55t-54.5 84.5t-19.5 107.5t19.5 107.5t54.5 85t84 55.5t107 20q57 0 106 -20t84 -55.5t55 -85t20 -107.5zM445 252q0 69 -41 111t-104 42t-104 -42t-41 -111t41 -110.5t104 -41.5
q62 0 103.5 41.5t41.5 110.5zM407 741l39 -109l-241 -73l-32 86z" />
    <glyph glyph-name="ocircumflex" unicode="&#xf4;" horiz-adv-x="600" 
d="M565 252q0 -58 -20 -107.5t-55 -84.5t-84 -55t-106 -20q-58 0 -107 20t-84 55t-54.5 84.5t-19.5 107.5t19.5 107.5t54.5 85t84 55.5t107 20q57 0 106 -20t84 -55.5t55 -85t20 -107.5zM445 252q0 69 -41 111t-104 42t-104 -42t-41 -111t41 -110.5t104 -41.5
q62 0 103.5 41.5t41.5 110.5zM476 634l-46 -78l-130 68l-130 -68l-46 78l176 105z" />
    <glyph glyph-name="otilde" unicode="&#xf5;" horiz-adv-x="600" 
d="M565 252q0 -58 -20 -107.5t-55 -84.5t-84 -55t-106 -20q-58 0 -107 20t-84 55t-54.5 84.5t-19.5 107.5t19.5 107.5t54.5 85t84 55.5t107 20q57 0 106 -20t84 -55.5t55 -85t20 -107.5zM445 252q0 69 -41 111t-104 42t-104 -42t-41 -111t41 -110.5t104 -41.5
q62 0 103.5 41.5t41.5 110.5zM358 569q-19 0 -34.5 5.5t-30 12t-29 12t-30.5 5.5q-19 0 -33 -11.5t-24 -23.5l-45 81q6 7 16.5 17t24 19.5t30 16t34.5 6.5q19 0 34.5 -5.5t30 -12t28.5 -12t30 -5.5q20 0 34.5 12t24.5 23l45 -81q-6 -7 -16.5 -17t-24.5 -19.5t-30.5 -16
t-34.5 -6.5z" />
    <glyph glyph-name="odieresis" unicode="&#xf6;" horiz-adv-x="600" 
d="M565 252q0 -58 -20 -107.5t-55 -84.5t-84 -55t-106 -20q-58 0 -107 20t-84 55t-54.5 84.5t-19.5 107.5t19.5 107.5t54.5 85t84 55.5t107 20q57 0 106 -20t84 -55.5t55 -85t20 -107.5zM445 252q0 69 -41 111t-104 42t-104 -42t-41 -111t41 -110.5t104 -41.5
q62 0 103.5 41.5t41.5 110.5zM130 645q0 31 20.5 51t50.5 20t50.5 -20t20.5 -51q0 -30 -20.5 -50.5t-50.5 -20.5t-50.5 20.5t-20.5 50.5zM328 645q0 31 20.5 51t50.5 20t50.5 -20t20.5 -51q0 -30 -20.5 -50.5t-50.5 -20.5t-50.5 20.5t-20.5 50.5z" />
    <glyph glyph-name="divide" unicode="&#xf7;" horiz-adv-x="547" 
d="M274 394q-31 0 -53.5 22t-22.5 53t22.5 53.5t53.5 22.5t53 -22.5t22 -53.5t-22 -53t-53 -22zM65 243v123h417v-123h-417zM274 62q-31 0 -53.5 22t-22.5 53t22.5 53.5t53.5 22.5t53 -22.5t22 -53.5t-22 -53t-53 -22z" />
    <glyph glyph-name="oslash" unicode="&#xf8;" horiz-adv-x="600" 
d="M565 252q0 -58 -20 -107.5t-55 -84.5t-84 -55t-106 -20q-37 0 -70 8t-61 23l-43 -51l-75 62l43 51q-28 34 -43.5 78.5t-15.5 95.5q0 58 19.5 107.5t54.5 85t84 55.5t107 20q38 0 72.5 -9t63.5 -25l39 46l75 -62l-40 -48q26 -34 40.5 -77.5t14.5 -92.5zM155 252
q0 -22 5 -42.5t13 -36.5l186 221q-13 5 -28 8t-31 3q-63 0 -104 -42t-41 -111zM445 252q0 21 -4.5 39.5t-11.5 34.5l-182 -217q12 -4 25.5 -6.5t27.5 -2.5q62 0 103.5 41.5t41.5 110.5z" />
    <glyph glyph-name="ugrave" unicode="&#xf9;" horiz-adv-x="624" 
d="M181 505v-280q0 -58 33.5 -91.5t90.5 -33.5q56 0 95.5 33.5t39.5 105.5v266h120v-505h-120v79q-6 -11 -19.5 -27.5t-35 -31t-50 -25t-63.5 -10.5q-101 0 -156.5 62t-54.5 170v288h120zM223 741l234 -96l-32 -86l-241 73z" />
    <glyph glyph-name="uacute" unicode="&#xfa;" horiz-adv-x="624" 
d="M181 505v-280q0 -58 33.5 -91.5t90.5 -33.5q56 0 95.5 33.5t39.5 105.5v266h120v-505h-120v79q-6 -11 -19.5 -27.5t-35 -31t-50 -25t-63.5 -10.5q-101 0 -156.5 62t-54.5 170v288h120zM417 741l39 -109l-241 -73l-32 86z" />
    <glyph glyph-name="ucircumflex" unicode="&#xfb;" horiz-adv-x="624" 
d="M181 505v-280q0 -58 33.5 -91.5t90.5 -33.5q56 0 95.5 33.5t39.5 105.5v266h120v-505h-120v79q-6 -11 -19.5 -27.5t-35 -31t-50 -25t-63.5 -10.5q-101 0 -156.5 62t-54.5 170v288h120zM486 634l-46 -78l-130 68l-130 -68l-46 78l176 105z" />
    <glyph glyph-name="udieresis" unicode="&#xfc;" horiz-adv-x="624" 
d="M181 505v-280q0 -58 33.5 -91.5t90.5 -33.5q56 0 95.5 33.5t39.5 105.5v266h120v-505h-120v79q-6 -11 -19.5 -27.5t-35 -31t-50 -25t-63.5 -10.5q-101 0 -156.5 62t-54.5 170v288h120zM140 645q0 31 20.5 51t50.5 20t50.5 -20t20.5 -51q0 -30 -20.5 -50.5t-50.5 -20.5
t-50.5 20.5t-20.5 50.5zM338 645q0 31 20.5 51t50.5 20t50.5 -20t20.5 -51q0 -30 -20.5 -50.5t-50.5 -20.5t-50.5 20.5t-20.5 50.5z" />
    <glyph glyph-name="yacute" unicode="&#xfd;" horiz-adv-x="529" 
d="M401 505h123l-200 -504l1 -1h-1l-69 -175h-120l70 180l-200 500h123l136 -350zM372 741l39 -109l-241 -73l-32 86z" />
    <glyph glyph-name="thorn" unicode="&#xfe;" horiz-adv-x="630" 
d="M185 700v-262q18 28 61.5 55t107.5 27q50 0 94.5 -20t76.5 -55t51 -84.5t19 -107.5t-19 -107.5t-51 -85t-76.5 -55.5t-94.5 -20q-65 0 -107.5 26.5t-61.5 54.5v-241h-120v875h120zM185 253q0 -69 41 -111t104 -42t104 42t41 111t-41 110.5t-104 41.5q-61 0 -102 -39.5
t-43 -105.5v-7z" />
    <glyph glyph-name="ydieresis" unicode="&#xff;" horiz-adv-x="529" 
d="M401 505h123l-200 -504l1 -1h-1l-69 -175h-120l70 180l-200 500h123l136 -350zM95 645q0 31 20.5 51t50.5 20t50.5 -20t20.5 -51q0 -30 -20.5 -50.5t-50.5 -20.5t-50.5 20.5t-20.5 50.5zM293 645q0 31 20.5 51t50.5 20t50.5 -20t20.5 -51q0 -30 -20.5 -50.5t-50.5 -20.5
t-50.5 20.5t-20.5 50.5z" />
    <glyph glyph-name="Amacron" unicode="&#x100;" horiz-adv-x="778" 
d="M623 0l-70 180h-329l-69 -180h-135l270 700h198l270 -700h-135zM272 305h233l-116 301zM248 760v100h282v-100h-282z" />
    <glyph glyph-name="amacron" unicode="&#x101;" horiz-adv-x="630" 
d="M445 0v66q-19 -28 -61.5 -54.5t-107.5 -26.5q-50 0 -94.5 20t-76.5 55.5t-51 85t-19 107.5t19 107.5t51 84.5t76.5 55t94.5 20q64 0 107 -27t62 -55v67h120v-505h-120zM300 100q63 0 104 42t41 111t-41 110.5t-104 41.5t-104 -41.5t-41 -110.5t41 -111t104 -42zM159 565
v100h282v-100h-282z" />
    <glyph glyph-name="Abreve" unicode="&#x102;" horiz-adv-x="778" 
d="M623 0l-70 180h-329l-69 -180h-135l270 700h198l270 -700h-135zM272 305h233l-116 301zM332 882q2 -19 15 -32t42 -13t42 13t15 32l90 -15q-7 -54 -42 -88t-105 -34t-105 36.5t-42 85.5z" />
    <glyph glyph-name="abreve" unicode="&#x103;" horiz-adv-x="630" 
d="M445 0v66q-19 -28 -61.5 -54.5t-107.5 -26.5q-50 0 -94.5 20t-76.5 55.5t-51 85t-19 107.5t19 107.5t51 84.5t76.5 55t94.5 20q64 0 107 -27t62 -55v67h120v-505h-120zM300 100q63 0 104 42t41 111t-41 110.5t-104 41.5t-104 -41.5t-41 -110.5t41 -111t104 -42zM300 651
q25 0 37 12t14 29l87 -16q-7 -46 -39 -79.5t-99 -33.5t-99 33.5t-39 79.5l87 16q2 -17 14 -29t37 -12z" />
    <glyph glyph-name="Aogonek" unicode="&#x104;" horiz-adv-x="778" 
d="M623 0l-70 180h-329l-69 -180h-135l270 700h198l270 -700h-135zM272 305h233l-116 301zM699 -193q-4 -1 -13 -1.5t-17 -0.5q-54 0 -91.5 28t-37.5 74q0 36 25.5 65t84.5 36l49 -8q-34 -10 -51 -31.5t-17 -41.5q0 -19 13 -28.5t31 -9.5q6 0 12.5 1.5t11.5 3.5v-87z" />
    <glyph glyph-name="aogonek" unicode="&#x105;" horiz-adv-x="630" 
d="M445 0v66q-19 -28 -61.5 -54.5t-107.5 -26.5q-50 0 -94.5 20t-76.5 55.5t-51 85t-19 107.5t19 107.5t51 84.5t76.5 55t94.5 20q64 0 107 -27t62 -55v67h120v-505h-120zM300 100q63 0 104 42t41 111t-41 110.5t-104 41.5t-104 -41.5t-41 -110.5t41 -111t104 -42zM532 -193
q-4 -1 -13 -1.5t-17 -0.5q-54 0 -91.5 28t-37.5 74q0 36 25.5 65t84.5 36l49 -8q-34 -10 -51 -31.5t-17 -41.5q0 -19 13 -28.5t31 -9.5q6 0 12.5 1.5t11.5 3.5v-87z" />
    <glyph glyph-name="Cacute" unicode="&#x106;" horiz-adv-x="756" 
d="M716 205q-33 -104 -119.5 -162t-199.5 -58q-74 0 -137.5 27.5t-110 76t-73 115.5t-26.5 146t26.5 146t73 115.5t110 76t137.5 27.5q112 0 196.5 -55t121.5 -161l-113 -52q-21 63 -74 103t-131 40q-101 0 -161.5 -66.5t-60.5 -173.5t60.5 -173.5t161.5 -66.5q80 0 133 41
t73 106zM513 906l26 -112l-254 -49l-22 92z" />
    <glyph glyph-name="cacute" unicode="&#x107;" horiz-adv-x="569" 
d="M420 170l115 -36q-23 -62 -86 -105.5t-150 -43.5q-57 0 -106 20t-84 55t-54.5 84.5t-19.5 107.5t19.5 107.5t54.5 85t84 55.5t106 20q90 0 154.5 -47t85.5 -112l-111 -42q-14 40 -45.5 63t-82.5 23q-63 0 -104 -42t-41 -111t41 -110.5t104 -41.5q46 0 74 18.5t46 51.5z
M403 741l39 -109l-241 -73l-32 86z" />
    <glyph glyph-name="Ccircumflex" unicode="&#x108;" horiz-adv-x="756" 
d="M716 205q-33 -104 -119.5 -162t-199.5 -58q-74 0 -137.5 27.5t-110 76t-73 115.5t-26.5 146t26.5 146t73 115.5t110 76t137.5 27.5q112 0 196.5 -55t121.5 -161l-113 -52q-21 63 -74 103t-131 40q-101 0 -161.5 -66.5t-60.5 -173.5t60.5 -173.5t161.5 -66.5q80 0 133 41
t73 106zM401 898l161 -61l-29 -92l-132 43l-132 -43l-29 92z" />
    <glyph glyph-name="ccircumflex" unicode="&#x109;" horiz-adv-x="569" 
d="M420 170l115 -36q-23 -62 -86 -105.5t-150 -43.5q-57 0 -106 20t-84 55t-54.5 84.5t-19.5 107.5t19.5 107.5t54.5 85t84 55.5t106 20q90 0 154.5 -47t85.5 -112l-111 -42q-14 40 -45.5 63t-82.5 23q-63 0 -104 -42t-41 -111t41 -110.5t104 -41.5q46 0 74 18.5t46 51.5z
M472 634l-46 -78l-130 68l-130 -68l-46 78l176 105z" />
    <glyph glyph-name="Cdotaccent" unicode="&#x10a;" horiz-adv-x="756" 
d="M716 205q-33 -104 -119.5 -162t-199.5 -58q-74 0 -137.5 27.5t-110 76t-73 115.5t-26.5 146t26.5 146t73 115.5t110 76t137.5 27.5q112 0 196.5 -55t121.5 -161l-113 -52q-21 63 -74 103t-131 40q-101 0 -161.5 -66.5t-60.5 -173.5t60.5 -173.5t161.5 -66.5q80 0 133 41
t73 106zM322 829q0 34 23 56.5t56 22.5t56 -22.5t23 -56.5t-23 -56.5t-56 -22.5t-56 22.5t-23 56.5z" />
    <glyph glyph-name="cdotaccent" unicode="&#x10b;" horiz-adv-x="569" 
d="M420 170l115 -36q-23 -62 -86 -105.5t-150 -43.5q-57 0 -106 20t-84 55t-54.5 84.5t-19.5 107.5t19.5 107.5t54.5 85t84 55.5t106 20q90 0 154.5 -47t85.5 -112l-111 -42q-14 40 -45.5 63t-82.5 23q-63 0 -104 -42t-41 -111t41 -110.5t104 -41.5q46 0 74 18.5t46 51.5z
M218 642q0 34 23 56.5t56 22.5t56 -22.5t23 -56.5t-23 -56.5t-56 -22.5t-56 22.5t-23 56.5z" />
    <glyph glyph-name="Ccaron" unicode="&#x10c;" horiz-adv-x="756" 
d="M716 205q-33 -104 -119.5 -162t-199.5 -58q-74 0 -137.5 27.5t-110 76t-73 115.5t-26.5 146t26.5 146t73 115.5t110 76t137.5 27.5q112 0 196.5 -55t121.5 -161l-113 -52q-21 63 -74 103t-131 40q-101 0 -161.5 -66.5t-60.5 -173.5t60.5 -173.5t161.5 -66.5q80 0 133 41
t73 106zM401 745l-161 61l29 92l132 -43l132 43l29 -92z" />
    <glyph glyph-name="ccaron" unicode="&#x10d;" horiz-adv-x="569" 
d="M420 170l115 -36q-23 -62 -86 -105.5t-150 -43.5q-57 0 -106 20t-84 55t-54.5 84.5t-19.5 107.5t19.5 107.5t54.5 85t84 55.5t106 20q90 0 154.5 -47t85.5 -112l-111 -42q-14 40 -45.5 63t-82.5 23q-63 0 -104 -42t-41 -111t41 -110.5t104 -41.5q46 0 74 18.5t46 51.5z
M472 664l-176 -105l-176 105l46 78l130 -68l130 68z" />
    <glyph glyph-name="Dcaron" unicode="&#x10e;" horiz-adv-x="765" 
d="M368 700q74 0 137.5 -26t110 -72t73 -110.5t26.5 -141.5t-26.5 -141.5t-73 -110.5t-110 -72t-137.5 -26h-283v700h283zM210 575v-450h158q101 0 161.5 61t60.5 164t-60.5 164t-161.5 61h-158zM375 745l-161 61l29 92l132 -43l132 43l29 -92z" />
    <glyph glyph-name="dcaron" unicode="&#x10f;" horiz-adv-x="630" 
d="M445 0v66q-19 -28 -61.5 -54.5t-107.5 -26.5q-50 0 -94.5 20t-76.5 55.5t-51 85t-19 107.5t19 107.5t51 84.5t76.5 55t94.5 20q64 0 107 -27t62 -55v262h120v-700h-120zM445 253q0 69 -41 110.5t-104 41.5t-104 -41.5t-41 -110.5t41 -111t104 -42t104 42t41 111zM658 700
h118l-34 -208h-99z" />
    <glyph glyph-name="Dcroat" unicode="&#x110;" horiz-adv-x="765" 
d="M368 700q74 0 137.5 -26t110 -72t73 -110.5t26.5 -141.5t-26.5 -141.5t-73 -110.5t-110 -72t-137.5 -26h-283v286h-65v125h65v289h283zM370 411v-125h-160v-161h158q101 0 161.5 61t60.5 164t-60.5 164t-161.5 61h-158v-164h160z" />
    <glyph glyph-name="dcroat" unicode="&#x111;" horiz-adv-x="630" 
d="M445 0v66q-19 -28 -61.5 -54.5t-107.5 -26.5q-50 0 -94.5 20t-76.5 55.5t-51 85t-19 107.5t19 107.5t51 84.5t76.5 55t94.5 20q64 0 107 -27t62 -55v120h-149v81h149v61h120v-61h60v-81h-60v-558h-120zM445 253q0 69 -41 110.5t-104 41.5t-104 -41.5t-41 -110.5t41 -111
t104 -42t104 42t41 111z" />
    <glyph glyph-name="Emacron" unicode="&#x112;" horiz-adv-x="735" 
d="M655 575h-445v-162h435v-124h-435v-164h450v-125h-575v700h570v-125zM236 760v100h282v-100h-282z" />
    <glyph glyph-name="emacron" unicode="&#x113;" horiz-adv-x="585" 
d="M300 100q42 0 74.5 18.5t48.5 52.5l113 -37q-31 -75 -97 -112t-140 -37q-57 0 -105.5 19.5t-83.5 54.5t-55 84.5t-20 108.5q0 58 19.5 107.5t54.5 85t84 55.5t106 20q59 0 107 -20.5t81 -56.5t50.5 -85t17.5 -106q0 -16 -1 -26.5l-1 -10.5h-394q5 -43 43 -79t98 -36z
M434 302q-4 18 -13 36t-25 33t-39.5 24.5t-56.5 9.5q-31 0 -55.5 -10t-41 -25t-27.5 -33.5t-15 -34.5h273zM154 565v100h282v-100h-282z" />
    <glyph glyph-name="Ebreve" unicode="&#x114;" horiz-adv-x="735" 
d="M655 575h-445v-162h435v-124h-435v-164h450v-125h-575v700h570v-125zM320 882q2 -19 15 -32t42 -13t42 13t15 32l90 -15q-7 -54 -42 -88t-105 -34t-105 36.5t-42 85.5z" />
    <glyph glyph-name="ebreve" unicode="&#x115;" horiz-adv-x="585" 
d="M300 100q42 0 74.5 18.5t48.5 52.5l113 -37q-31 -75 -97 -112t-140 -37q-57 0 -105.5 19.5t-83.5 54.5t-55 84.5t-20 108.5q0 58 19.5 107.5t54.5 85t84 55.5t106 20q59 0 107 -20.5t81 -56.5t50.5 -85t17.5 -106q0 -16 -1 -26.5l-1 -10.5h-394q5 -43 43 -79t98 -36z
M434 302q-4 18 -13 36t-25 33t-39.5 24.5t-56.5 9.5q-31 0 -55.5 -10t-41 -25t-27.5 -33.5t-15 -34.5h273zM295 651q25 0 37 12t14 29l87 -16q-7 -46 -39 -79.5t-99 -33.5t-99 33.5t-39 79.5l87 16q2 -17 14 -29t37 -12z" />
    <glyph glyph-name="Edotaccent" unicode="&#x116;" horiz-adv-x="735" 
d="M655 575h-445v-162h435v-124h-435v-164h450v-125h-575v700h570v-125zM298 829q0 34 23 56.5t56 22.5t56 -22.5t23 -56.5t-23 -56.5t-56 -22.5t-56 22.5t-23 56.5z" />
    <glyph glyph-name="edotaccent" unicode="&#x117;" horiz-adv-x="585" 
d="M300 100q42 0 74.5 18.5t48.5 52.5l113 -37q-31 -75 -97 -112t-140 -37q-57 0 -105.5 19.5t-83.5 54.5t-55 84.5t-20 108.5q0 58 19.5 107.5t54.5 85t84 55.5t106 20q59 0 107 -20.5t81 -56.5t50.5 -85t17.5 -106q0 -16 -1 -26.5l-1 -10.5h-394q5 -43 43 -79t98 -36z
M434 302q-4 18 -13 36t-25 33t-39.5 24.5t-56.5 9.5q-31 0 -55.5 -10t-41 -25t-27.5 -33.5t-15 -34.5h273zM217 642q0 34 23 56.5t56 22.5t56 -22.5t23 -56.5t-23 -56.5t-56 -22.5t-56 22.5t-23 56.5z" />
    <glyph glyph-name="Eogonek" unicode="&#x118;" horiz-adv-x="735" 
d="M655 575h-445v-162h435v-124h-435v-164h450v-125h-575v700h570v-125zM661 -193q-4 -1 -13 -1.5t-17 -0.5q-54 0 -91.5 28t-37.5 74q0 36 25.5 65t84.5 36l49 -8q-34 -10 -51 -31.5t-17 -41.5q0 -19 13 -28.5t31 -9.5q6 0 12.5 1.5t11.5 3.5v-87z" />
    <glyph glyph-name="eogonek" unicode="&#x119;" horiz-adv-x="585" 
d="M300 100q42 0 74.5 18.5t48.5 52.5l113 -37q-9 -22 -21.5 -41t-28.5 -35q-31 -34 -54 -63.5t-23 -64.5q0 -22 14.5 -31.5t32.5 -9.5q6 0 12.5 1.5t11.5 3.5v-87q-4 -1 -13.5 -1.5t-19.5 -0.5q-63 0 -100 26.5t-37 75.5q0 25 12.5 46.5t35.5 37.5q-14 -3 -29 -4.5
t-30 -1.5q-57 0 -105.5 19.5t-83.5 54.5t-55 84.5t-20 108.5q0 58 19.5 107.5t54.5 85t84 55.5t106 20q59 0 107 -20.5t81 -56.5t50.5 -85t17.5 -106q0 -16 -1 -26.5l-1 -10.5h-394q5 -43 43 -79t98 -36zM434 302q-4 18 -13 36t-25 33t-39.5 24.5t-56.5 9.5q-31 0 -55.5 -10
t-41 -25t-27.5 -33.5t-15 -34.5h273z" />
    <glyph glyph-name="Ecaron" unicode="&#x11a;" horiz-adv-x="735" 
d="M655 575h-445v-162h435v-124h-435v-164h450v-125h-575v700h570v-125zM377 745l-161 61l29 92l132 -43l132 43l29 -92z" />
    <glyph glyph-name="ecaron" unicode="&#x11b;" horiz-adv-x="585" 
d="M300 100q42 0 74.5 18.5t48.5 52.5l113 -37q-31 -75 -97 -112t-140 -37q-57 0 -105.5 19.5t-83.5 54.5t-55 84.5t-20 108.5q0 58 19.5 107.5t54.5 85t84 55.5t106 20q59 0 107 -20.5t81 -56.5t50.5 -85t17.5 -106q0 -16 -1 -26.5l-1 -10.5h-394q5 -43 43 -79t98 -36z
M434 302q-4 18 -13 36t-25 33t-39.5 24.5t-56.5 9.5q-31 0 -55.5 -10t-41 -25t-27.5 -33.5t-15 -34.5h273zM471 664l-176 -105l-176 105l46 78l130 -68l130 68z" />
    <glyph glyph-name="Gcircumflex" unicode="&#x11c;" horiz-adv-x="775" 
d="M397 365h309v-365h-115v56q-42 -39 -93.5 -55t-105.5 -16q-72 0 -135 27.5t-108.5 76t-72 115.5t-26.5 146t26.5 146t73 115.5t110 76t137.5 27.5q112 0 196.5 -55t121.5 -161l-113 -52q-21 63 -74 103t-131 40q-101 0 -161.5 -66.5t-60.5 -173.5t60.5 -173.5
t161.5 -66.5q75 0 124.5 38t65.5 92h-190v125zM397 898l161 -61l-29 -92l-132 43l-132 -43l-29 92z" />
    <glyph glyph-name="gcircumflex" unicode="&#x11d;" horiz-adv-x="602" 
d="M417 97q-17 -26 -57 -51.5t-102 -25.5q-47 0 -88 18.5t-71 51.5t-47 79.5t-17 101.5q0 54 17 100t47 79t71 51.5t88 18.5q61 0 102 -26t57 -52v63h120v-443q0 -121 -70.5 -186.5t-189.5 -65.5q-55 0 -96.5 14.5t-70.5 36t-47.5 45.5t-27.5 42l103 61q5 -11 15 -25.5
t26.5 -27.5t41 -22t56.5 -9q60 0 100 31.5t40 105.5v35zM416 270q0 61 -37 98.5t-93 37.5t-93 -37.5t-37 -98.5q0 -62 37 -99.5t93 -37.5t93 37.5t37 99.5zM479 634l-46 -78l-130 68l-130 -68l-46 78l176 105z" />
    <glyph glyph-name="Gbreve" unicode="&#x11e;" horiz-adv-x="775" 
d="M397 365h309v-365h-115v56q-42 -39 -93.5 -55t-105.5 -16q-72 0 -135 27.5t-108.5 76t-72 115.5t-26.5 146t26.5 146t73 115.5t110 76t137.5 27.5q112 0 196.5 -55t121.5 -161l-113 -52q-21 63 -74 103t-131 40q-101 0 -161.5 -66.5t-60.5 -173.5t60.5 -173.5
t161.5 -66.5q75 0 124.5 38t65.5 92h-190v125zM340 882q2 -19 15 -32t42 -13t42 13t15 32l90 -15q-7 -54 -42 -88t-105 -34t-105 36.5t-42 85.5z" />
    <glyph glyph-name="gbreve" unicode="&#x11f;" horiz-adv-x="602" 
d="M417 97q-17 -26 -57 -51.5t-102 -25.5q-47 0 -88 18.5t-71 51.5t-47 79.5t-17 101.5q0 54 17 100t47 79t71 51.5t88 18.5q61 0 102 -26t57 -52v63h120v-443q0 -121 -70.5 -186.5t-189.5 -65.5q-55 0 -96.5 14.5t-70.5 36t-47.5 45.5t-27.5 42l103 61q5 -11 15 -25.5
t26.5 -27.5t41 -22t56.5 -9q60 0 100 31.5t40 105.5v35zM416 270q0 61 -37 98.5t-93 37.5t-93 -37.5t-37 -98.5q0 -62 37 -99.5t93 -37.5t93 37.5t37 99.5zM303 651q25 0 37 12t14 29l87 -16q-7 -46 -39 -79.5t-99 -33.5t-99 33.5t-39 79.5l87 16q2 -17 14 -29t37 -12z" />
    <glyph glyph-name="Gdotaccent" unicode="&#x120;" horiz-adv-x="775" 
d="M397 365h309v-365h-115v56q-42 -39 -93.5 -55t-105.5 -16q-72 0 -135 27.5t-108.5 76t-72 115.5t-26.5 146t26.5 146t73 115.5t110 76t137.5 27.5q112 0 196.5 -55t121.5 -161l-113 -52q-21 63 -74 103t-131 40q-101 0 -161.5 -66.5t-60.5 -173.5t60.5 -173.5
t161.5 -66.5q75 0 124.5 38t65.5 92h-190v125zM318 829q0 34 23 56.5t56 22.5t56 -22.5t23 -56.5t-23 -56.5t-56 -22.5t-56 22.5t-23 56.5z" />
    <glyph glyph-name="gdotaccent" unicode="&#x121;" horiz-adv-x="602" 
d="M417 97q-17 -26 -57 -51.5t-102 -25.5q-47 0 -88 18.5t-71 51.5t-47 79.5t-17 101.5q0 54 17 100t47 79t71 51.5t88 18.5q61 0 102 -26t57 -52v63h120v-443q0 -121 -70.5 -186.5t-189.5 -65.5q-55 0 -96.5 14.5t-70.5 36t-47.5 45.5t-27.5 42l103 61q5 -11 15 -25.5
t26.5 -27.5t41 -22t56.5 -9q60 0 100 31.5t40 105.5v35zM416 270q0 61 -37 98.5t-93 37.5t-93 -37.5t-37 -98.5q0 -62 37 -99.5t93 -37.5t93 37.5t37 99.5zM225 642q0 34 23 56.5t56 22.5t56 -22.5t23 -56.5t-23 -56.5t-56 -22.5t-56 22.5t-23 56.5z" />
    <glyph glyph-name="Gcommaaccent" unicode="&#x122;" horiz-adv-x="775" 
d="M397 365h309v-365h-115v56q-42 -39 -93.5 -55t-105.5 -16q-72 0 -135 27.5t-108.5 76t-72 115.5t-26.5 146t26.5 146t73 115.5t110 76t137.5 27.5q112 0 196.5 -55t121.5 -161l-113 -52q-21 63 -74 103t-131 40q-101 0 -161.5 -66.5t-60.5 -173.5t60.5 -173.5
t161.5 -66.5q75 0 124.5 38t65.5 92h-190v125zM333 -36h129l-63 -223h-107z" />
    <glyph glyph-name="gcommaaccent" unicode="&#x123;" horiz-adv-x="602" 
d="M417 97q-17 -26 -57 -51.5t-102 -25.5q-47 0 -88 18.5t-71 51.5t-47 79.5t-17 101.5q0 54 17 100t47 79t71 51.5t88 18.5q61 0 102 -26t57 -52v63h120v-443q0 -121 -70.5 -186.5t-189.5 -65.5q-55 0 -96.5 14.5t-70.5 36t-47.5 45.5t-27.5 42l103 61q5 -11 15 -25.5
t26.5 -27.5t41 -22t56.5 -9q60 0 100 31.5t40 105.5v35zM416 270q0 61 -37 98.5t-93 37.5t-93 -37.5t-37 -98.5q0 -62 37 -99.5t93 -37.5t93 37.5t37 99.5zM357 576h-129l63 223h107z" />
    <glyph glyph-name="Hcircumflex" unicode="&#x124;" horiz-adv-x="800" 
d="M590 0v290h-380v-290h-125v700h125v-285h380v285h125v-700h-125zM400 898l161 -61l-29 -92l-132 43l-132 -43l-29 92z" />
    <glyph glyph-name="hcircumflex" unicode="&#x125;" horiz-adv-x="624" 
d="M444 0v280q0 58 -33.5 91.5t-90.5 33.5q-56 0 -95.5 -34t-39.5 -106v-265h-120v700h120v-274q6 11 19.5 27.5t35 31t50 25t63.5 10.5q101 0 156.5 -62t54.5 -170v-288h-120zM124 898l161 -61l-29 -92l-132 43l-132 -43l-29 92z" />
    <glyph glyph-name="Hbar" unicode="&#x126;" horiz-adv-x="800" 
d="M590 0v290h-380v-290h-125v490h-65v125h65v85h125v-85h380v85h125v-85h65v-125h-65v-490h-125zM210 415h380v75h-380v-75z" />
    <glyph glyph-name="hbar" unicode="&#x127;" horiz-adv-x="624" 
d="M444 0v280q0 58 -33.5 91.5t-90.5 33.5q-56 0 -95.5 -34t-39.5 -106v-265h-120v558h-60v81h60v61h120v-61h149v-81h-149v-132q6 11 19.5 27.5t35 31t50 25t63.5 10.5q101 0 156.5 -62t54.5 -170v-288h-120z" />
    <glyph glyph-name="Itilde" unicode="&#x128;" horiz-adv-x="295" 
d="M85 0v700h125v-700h-125zM268 889l59 -85l-8 -9t-22.5 -20.5t-34 -20.5t-43.5 -9q-18 0 -34.5 5t-32 11.5t-30.5 11.5t-30 5q-12 0 -23.5 -5t-20 -11.5t-13.5 -11.5l-5 -5l-59 85l8 9t22.5 20.5t34 20.5t43.5 9q18 0 34.5 -5t32 -11.5t30.5 -11.5t30 -5q12 0 23.5 5
t20 11.5t13.5 11.5z" />
    <glyph glyph-name="itilde" unicode="&#x129;" horiz-adv-x="260" 
d="M70 0v505h120v-505h-120zM187 569q-19 0 -34.5 5.5t-30 12t-29 12t-30.5 5.5q-19 0 -33 -11.5t-24 -23.5l-45 81q6 7 16.5 17t24 19.5t30 16t34.5 6.5q19 0 34.5 -5.5t30 -12t28.5 -12t30 -5.5q20 0 34.5 12t24.5 23l45 -81q-6 -7 -16.5 -17t-24.5 -19.5t-30.5 -16
t-34.5 -6.5z" />
    <glyph glyph-name="Imacron" unicode="&#x12a;" horiz-adv-x="295" 
d="M85 0v700h125v-700h-125zM7 760v100h282v-100h-282z" />
    <glyph glyph-name="imacron" unicode="&#x12b;" horiz-adv-x="260" 
d="M70 0v505h120v-505h-120zM-12 565v100h282v-100h-282z" />
    <glyph glyph-name="Ibreve" unicode="&#x12c;" horiz-adv-x="295" 
d="M85 0v700h125v-700h-125zM91 882q2 -19 15 -32t42 -13t42 13t15 32l90 -15q-7 -54 -42 -88t-105 -34t-105 36.5t-42 85.5z" />
    <glyph glyph-name="ibreve" unicode="&#x12d;" horiz-adv-x="260" 
d="M70 0v505h120v-505h-120zM129 651q25 0 37 12t14 29l87 -16q-7 -46 -39 -79.5t-99 -33.5t-99 33.5t-39 79.5l87 16q2 -17 14 -29t37 -12z" />
    <glyph glyph-name="Iogonek" unicode="&#x12e;" horiz-adv-x="295" 
d="M85 0v700h125v-700h-125zM174 -193q-4 -1 -13 -1.5t-17 -0.5q-54 0 -91.5 28t-37.5 74q0 36 25.5 65t84.5 36l49 -8q-34 -10 -51 -31.5t-17 -41.5q0 -19 13 -28.5t31 -9.5q6 0 12.5 1.5t11.5 3.5v-87z" />
    <glyph glyph-name="iogonek" unicode="&#x12f;" horiz-adv-x="260" 
d="M51 642q0 34 23 56.5t56 22.5t56 -22.5t23 -56.5t-23 -56.5t-56 -22.5t-56 22.5t-23 56.5zM70 0v505h120v-505h-120zM157 -193q-4 -1 -13 -1.5t-17 -0.5q-54 0 -91.5 28t-37.5 74q0 36 25.5 65t84.5 36l49 -8q-34 -10 -51 -31.5t-17 -41.5q0 -19 13 -28.5t31 -9.5
q6 0 12.5 1.5t11.5 3.5v-87z" />
    <glyph glyph-name="Idotaccent" unicode="&#x130;" horiz-adv-x="295" 
d="M85 0v700h125v-700h-125zM69 829q0 34 23 56.5t56 22.5t56 -22.5t23 -56.5t-23 -56.5t-56 -22.5t-56 22.5t-23 56.5z" />
    <glyph glyph-name="dotlessi" unicode="&#x131;" horiz-adv-x="260" 
d="M70 0v505h120v-505h-120z" />
    <glyph glyph-name="IJ" unicode="&#x132;" horiz-adv-x="944" 
d="M85 0v700h125v-700h-125zM869 700v-433q0 -62 -19 -114.5t-53.5 -89.5t-84 -57.5t-110.5 -20.5q-82 0 -134 32t-81.5 70t-40.5 70l-11 32l115 54l6 -21t22.5 -45.5t46.5 -45.5t77 -21q67 0 104.5 43.5t37.5 113.5v433h125z" />
    <glyph glyph-name="ij" unicode="&#x133;" horiz-adv-x="515" 
d="M51 642q0 34 23 56.5t56 22.5t56 -22.5t23 -56.5t-23 -56.5t-56 -22.5t-56 22.5t-23 56.5zM70 0v505h120v-505h-120zM311 642q0 34 23 56.5t56 22.5t56 -22.5t23 -56.5t-23 -56.5t-56 -22.5t-56 22.5t-23 56.5zM330 3v502h120v-524q0 -96 -45.5 -133.5t-137.5 -37.5
q-12 0 -24 1l-12 1v112h23q41 0 58.5 16.5t17.5 62.5z" />
    <glyph glyph-name="Jcircumflex" unicode="&#x134;" horiz-adv-x="649" 
d="M574 700v-433q0 -62 -19 -114.5t-53.5 -89.5t-84 -57.5t-110.5 -20.5q-82 0 -134 32t-81.5 70t-40.5 70l-11 32l115 54l6 -21t22.5 -45.5t46.5 -45.5t77 -21q67 0 104.5 43.5t37.5 113.5v433h125zM515 898l161 -61l-29 -92l-132 43l-132 -43l-29 92z" />
    <glyph glyph-name="jcircumflex" unicode="&#x135;" horiz-adv-x="255" 
d="M70 3v502h120v-524q0 -96 -45.5 -133.5t-137.5 -37.5q-12 0 -24 1l-12 1v112h23q41 0 58.5 16.5t17.5 62.5zM307 634l-46 -78l-130 68l-130 -68l-46 78l176 105z" />
    <glyph glyph-name="Kcommaaccent" unicode="&#x136;" horiz-adv-x="776" 
d="M582 0l-223 362l-149 -141v-221h-125v700h125v-310l325 310h180l-259 -246l290 -454h-164zM343 -36h129l-63 -223h-107z" />
    <glyph glyph-name="kcommaaccent" unicode="&#x137;" horiz-adv-x="556" 
d="M65 0v700h120v-401l185 206h151l-168 -185l198 -320h-144l-136 230l-86 -95v-135h-120zM237 -36h129l-63 -223h-107z" />
    <glyph glyph-name="kgreenlandic" unicode="&#x138;" horiz-adv-x="556" 
d="M65 0v505h120v-206l185 206h151l-168 -185l198 -320h-144l-136 230l-86 -95v-135h-120z" />
    <glyph glyph-name="Lacute" unicode="&#x139;" horiz-adv-x="670" 
d="M210 125h410v-125h-535v700h125v-575zM263 906l26 -112l-254 -49l-22 92z" />
    <glyph glyph-name="lacute" unicode="&#x13a;" horiz-adv-x="250" 
d="M65 0v700h120v-700h-120zM237 906l26 -112l-254 -49l-22 92z" />
    <glyph glyph-name="Lcommaaccent" unicode="&#x13b;" horiz-adv-x="670" 
d="M210 125h410v-125h-535v700h125v-575zM300 -36h129l-63 -223h-107z" />
    <glyph glyph-name="lcommaaccent" unicode="&#x13c;" horiz-adv-x="250" 
d="M65 0v700h120v-700h-120zM55 -36h129l-63 -223h-107z" />
    <glyph glyph-name="Lcaron" unicode="&#x13d;" horiz-adv-x="670" 
d="M210 125h410v-125h-535v700h125v-575zM343 700h118l-34 -208h-99z" />
    <glyph glyph-name="lcaron" unicode="&#x13e;" horiz-adv-x="250" 
d="M65 0v700h120v-700h-120zM276 700h118l-34 -208h-99z" />
    <glyph glyph-name="Ldot" unicode="&#x13f;" horiz-adv-x="670" 
d="M210 125h410v-125h-535v700h125v-575zM404 404q0 34 23 56.5t56 22.5t56 -22.5t23 -56.5t-23 -56.5t-56 -22.5t-56 22.5t-23 56.5z" />
    <glyph glyph-name="ldot" unicode="&#x140;" horiz-adv-x="379" 
d="M236 295q0 34 23 56.5t56 22.5t56 -22.5t23 -56.5t-23 -56.5t-56 -22.5t-56 22.5t-23 56.5zM65 0v700h120v-700h-120z" />
    <glyph glyph-name="Lslash" unicode="&#x141;" horiz-adv-x="670" 
d="M210 125h410v-125h-535v295l-75 -25v125l75 25v280h125v-239l100 34v-125l-100 -34v-211z" />
    <glyph glyph-name="lslash" unicode="&#x142;" horiz-adv-x="250" 
d="M65 0v292l-65 -24v92l65 25v315h120v-273l65 25v-92l-65 -24v-336h-120z" />
    <glyph glyph-name="Nacute" unicode="&#x143;" horiz-adv-x="817" 
d="M526 0l-316 590v-590h-125v700h206l316 -590v590h125v-700h-206zM521 906l26 -112l-254 -49l-22 92z" />
    <glyph glyph-name="nacute" unicode="&#x144;" horiz-adv-x="624" 
d="M444 0v280q0 58 -33.5 91.5t-90.5 33.5q-56 0 -95.5 -34t-39.5 -106v-265h-120v505h120v-79q6 11 19.5 27.5t35 31t50 25t63.5 10.5q101 0 156 -62t55 -170v-288h-120zM426 741l39 -109l-241 -73l-32 86z" />
    <glyph glyph-name="Ncommaaccent" unicode="&#x145;" horiz-adv-x="817" 
d="M526 0l-316 590v-590h-125v700h206l316 -590v590h125v-700h-206zM356 -36h129l-63 -223h-107z" />
    <glyph glyph-name="ncommaaccent" unicode="&#x146;" horiz-adv-x="624" 
d="M444 0v280q0 58 -33.5 91.5t-90.5 33.5q-56 0 -95.5 -34t-39.5 -106v-265h-120v505h120v-79q6 11 19.5 27.5t35 31t50 25t63.5 10.5q101 0 156 -62t55 -170v-288h-120zM262 -36h129l-63 -223h-107z" />
    <glyph glyph-name="Ncaron" unicode="&#x147;" horiz-adv-x="817" 
d="M526 0l-316 590v-590h-125v700h206l316 -590v590h125v-700h-206zM409 745l-161 61l29 92l132 -43l132 43l29 -92z" />
    <glyph glyph-name="ncaron" unicode="&#x148;" horiz-adv-x="624" 
d="M444 0v280q0 58 -33.5 91.5t-90.5 33.5q-56 0 -95.5 -34t-39.5 -106v-265h-120v505h120v-79q6 11 19.5 27.5t35 31t50 25t63.5 10.5q101 0 156 -62t55 -170v-288h-120zM495 664l-176 -105l-176 105l46 78l130 -68l130 68z" />
    <glyph glyph-name="Eng" unicode="&#x14a;" horiz-adv-x="817" 
d="M526 0l-316 590v-590h-125v700h206l316 -590v590h125v-711q0 -100 -47.5 -139.5t-143.5 -39.5q-13 0 -25.5 1l-12.5 1v117h24q42 0 61 17t19 51v3h-81z" />
    <glyph glyph-name="eng" unicode="&#x14b;" horiz-adv-x="624" 
d="M444 3v277q0 58 -33.5 91.5t-90.5 33.5q-56 0 -94.5 -34t-40.5 -106v-265h-120v505h120v-79q6 11 19.5 27.5t35 31t50 25t63.5 10.5q101 0 156 -62t55 -170v-307q0 -96 -45.5 -133.5t-137.5 -37.5q-12 0 -24 1l-12 1v112h23q41 0 58.5 16.5t17.5 62.5z" />
    <glyph glyph-name="Omacron" unicode="&#x14c;" horiz-adv-x="794" 
d="M50 350q0 79 26.5 146t73 115.5t110 76t137.5 27.5t137.5 -27.5t110 -76t73 -115.5t26.5 -146t-26.5 -146t-73 -115.5t-110 -76t-137.5 -27.5t-137.5 27.5t-110 76t-73 115.5t-26.5 146zM619 350q0 107 -60.5 173.5t-161.5 66.5t-161.5 -66.5t-60.5 -173.5t60.5 -173.5
t161.5 -66.5t161.5 66.5t60.5 173.5zM256 760v100h282v-100h-282z" />
    <glyph glyph-name="omacron" unicode="&#x14d;" horiz-adv-x="600" 
d="M565 252q0 -58 -20 -107.5t-55 -84.5t-84 -55t-106 -20q-58 0 -107 20t-84 55t-54.5 84.5t-19.5 107.5t19.5 107.5t54.5 85t84 55.5t107 20q57 0 106 -20t84 -55.5t55 -85t20 -107.5zM445 252q0 69 -41 111t-104 42t-104 -42t-41 -111t41 -110.5t104 -41.5
q62 0 103.5 41.5t41.5 110.5zM159 565v100h282v-100h-282z" />
    <glyph glyph-name="Obreve" unicode="&#x14e;" horiz-adv-x="794" 
d="M50 350q0 79 26.5 146t73 115.5t110 76t137.5 27.5t137.5 -27.5t110 -76t73 -115.5t26.5 -146t-26.5 -146t-73 -115.5t-110 -76t-137.5 -27.5t-137.5 27.5t-110 76t-73 115.5t-26.5 146zM619 350q0 107 -60.5 173.5t-161.5 66.5t-161.5 -66.5t-60.5 -173.5t60.5 -173.5
t161.5 -66.5t161.5 66.5t60.5 173.5zM340 882q2 -19 15 -32t42 -13t42 13t15 32l90 -15q-7 -54 -42 -88t-105 -34t-105 36.5t-42 85.5z" />
    <glyph glyph-name="obreve" unicode="&#x14f;" horiz-adv-x="600" 
d="M565 252q0 -58 -20 -107.5t-55 -84.5t-84 -55t-106 -20q-58 0 -107 20t-84 55t-54.5 84.5t-19.5 107.5t19.5 107.5t54.5 85t84 55.5t107 20q57 0 106 -20t84 -55.5t55 -85t20 -107.5zM445 252q0 69 -41 111t-104 42t-104 -42t-41 -111t41 -110.5t104 -41.5
q62 0 103.5 41.5t41.5 110.5zM300 651q25 0 37 12t14 29l87 -16q-7 -46 -39 -79.5t-99 -33.5t-99 33.5t-39 79.5l87 16q2 -17 14 -29t37 -12z" />
    <glyph glyph-name="Ohungarumlaut" unicode="&#x150;" horiz-adv-x="794" 
d="M50 350q0 79 26.5 146t73 115.5t110 76t137.5 27.5t137.5 -27.5t110 -76t73 -115.5t26.5 -146t-26.5 -146t-73 -115.5t-110 -76t-137.5 -27.5t-137.5 27.5t-110 76t-73 115.5t-26.5 146zM619 350q0 107 -60.5 173.5t-161.5 66.5t-161.5 -66.5t-60.5 -173.5t60.5 -173.5
t161.5 -66.5t161.5 66.5t60.5 173.5zM321 926l97 -61l-90 -120l-80 49zM490 926l97 -61l-90 -120l-80 49z" />
    <glyph glyph-name="ohungarumlaut" unicode="&#x151;" horiz-adv-x="600" 
d="M565 252q0 -58 -20 -107.5t-55 -84.5t-84 -55t-106 -20q-58 0 -107 20t-84 55t-54.5 84.5t-19.5 107.5t19.5 107.5t54.5 85t84 55.5t107 20q57 0 106 -20t84 -55.5t55 -85t20 -107.5zM445 252q0 69 -41 111t-104 42t-104 -42t-41 -111t41 -110.5t104 -41.5
q62 0 103.5 41.5t41.5 110.5zM248 768l83 -73l-129 -136l-71 61zM434 768l83 -73l-129 -136l-71 61z" />
    <glyph glyph-name="OE" unicode="&#x152;" horiz-adv-x="1214" 
d="M1134 575h-395v-162h390v-124h-390v-164h400v-125h-525v74q-45 -45 -101.5 -67t-120.5 -22q-72 0 -135 27.5t-108.5 76t-72 115.5t-26.5 146t26.5 146t71.5 115.5t107 76t132 27.5q64 0 123 -22t104 -67v74h520v-125zM619 350q0 107 -62.5 173.5t-159.5 66.5
q-101 0 -161.5 -66.5t-60.5 -173.5t60.5 -173.5t161.5 -66.5q47 0 88 17t70.5 47.5t46.5 75.5t17 100z" />
    <glyph glyph-name="oe" unicode="&#x153;" horiz-adv-x="989" 
d="M704 100q42 0 74.5 18.5t48.5 52.5l113 -37q-31 -75 -97 -112t-140 -37q-62 0 -114 23t-87 64q-36 -40 -88 -63.5t-114 -23.5q-58 0 -107 20t-84 55t-54.5 84.5t-19.5 107.5t19.5 107.5t54.5 85t84 55.5t107 20q62 0 114 -23.5t88 -64.5q35 41 87 64.5t114 23.5
q59 0 107 -20.5t81 -56.5t50.5 -85t17.5 -106q0 -16 -1 -26.5l-1 -10.5h-394q5 -43 43 -79t98 -36zM838 302q-4 18 -13 36t-25 33t-39.5 24.5t-56.5 9.5q-31 0 -55.5 -10t-41 -25t-27.5 -33.5t-15 -34.5h273zM445 252q0 69 -41 111t-104 42t-104 -42t-41 -111t41 -110.5
t104 -41.5q62 0 103.5 41.5t41.5 110.5z" />
    <glyph glyph-name="Racute" unicode="&#x154;" horiz-adv-x="756" 
d="M557 0l-131 257h-216v-257h-125v700h366q50 0 93 -17t74 -46.5t49 -69.5t18 -86q0 -66 -35.5 -120t-94.5 -81l151 -280h-149zM448 575h-238v-194h238q56 0 84 28.5t28 68.5t-28 68.5t-84 28.5zM477 906l26 -112l-254 -49l-22 92z" />
    <glyph glyph-name="racute" unicode="&#x155;" horiz-adv-x="369" 
d="M359 515v-124h-52q-62 0 -92 -33t-30 -108v-250h-120v505h120v-83q19 47 55 70t95 23h24zM318 741l39 -109l-241 -73l-32 86z" />
    <glyph glyph-name="Rcommaaccent" unicode="&#x156;" horiz-adv-x="756" 
d="M557 0l-131 257h-216v-257h-125v700h366q50 0 93 -17t74 -46.5t49 -69.5t18 -86q0 -66 -35.5 -120t-94.5 -81l151 -280h-149zM448 575h-238v-194h238q56 0 84 28.5t28 68.5t-28 68.5t-84 28.5zM333 -36h129l-63 -223h-107z" />
    <glyph glyph-name="rcommaaccent" unicode="&#x157;" horiz-adv-x="369" 
d="M359 515v-124h-52q-62 0 -92 -33t-30 -108v-250h-120v505h120v-83q19 47 55 70t95 23h24zM64 -36h129l-63 -223h-107z" />
    <glyph glyph-name="Rcaron" unicode="&#x158;" horiz-adv-x="756" 
d="M557 0l-131 257h-216v-257h-125v700h366q50 0 93 -17t74 -46.5t49 -69.5t18 -86q0 -66 -35.5 -120t-94.5 -81l151 -280h-149zM448 575h-238v-194h238q56 0 84 28.5t28 68.5t-28 68.5t-84 28.5zM365 745l-161 61l29 92l132 -43l132 43l29 -92z" />
    <glyph glyph-name="rcaron" unicode="&#x159;" horiz-adv-x="369" 
d="M359 515v-124h-52q-62 0 -92 -33t-30 -108v-250h-120v505h120v-83q19 47 55 70t95 23h24zM387 664l-176 -105l-176 105l46 78l130 -68l130 68z" />
    <glyph glyph-name="Sacute" unicode="&#x15a;" horiz-adv-x="720" 
d="M362 -15q-96 0 -158.5 25t-98.5 54t-50.5 54l-14.5 25l105 76l12.5 -17t38.5 -37.5t67.5 -37.5t98.5 -17q36 0 68.5 4.5t57 15.5t38.5 28.5t14 42.5q0 42 -37.5 60.5t-82.5 22.5l-120 10q-49 4 -92 18t-74.5 39t-50 62.5t-18.5 87.5t23.5 90t62 67.5t89.5 42t105 14.5
q85 0 143 -24.5t92.5 -53t49.5 -53l15 -24.5l-105 -74l-9 16.5t-31.5 35.5t-60 35.5t-94.5 16.5q-66 0 -109.5 -23t-43.5 -66q0 -37 30 -55.5t78 -22.5l120 -10q53 -4 98.5 -18t79 -38.5t53 -62.5t19.5 -90q0 -54 -25 -95.5t-67 -68.5t-98 -41t-118 -14zM467 906l26 -112
l-254 -49l-22 92z" />
    <glyph glyph-name="sacute" unicode="&#x15b;" horiz-adv-x="507" 
d="M261 -15q-68 0 -113.5 20.5t-72.5 45t-38.5 45l-11.5 20.5l97 70l7 -13.5t23 -29.5t43 -29.5t66 -13.5q58 0 82 15t24 36q0 20 -17 28t-48 11l-88 9q-71 6 -119.5 45.5t-48.5 109.5q0 40 17.5 71.5t46 52t65.5 31.5t76 11q57 0 98 -18t66.5 -39.5t37 -39.5l11.5 -18
l-93 -68l-5.5 10.5t-18.5 23.5t-36.5 23.5t-59.5 10.5q-39 0 -65 -14t-26 -37q0 -20 14 -29t49 -13l87 -10q73 -8 122.5 -43t49.5 -105q0 -39 -19 -70.5t-50 -53t-71 -33.5t-81 -12zM373 741l39 -109l-241 -73l-32 86z" />
    <glyph glyph-name="Scircumflex" unicode="&#x15c;" horiz-adv-x="720" 
d="M362 -15q-96 0 -158.5 25t-98.5 54t-50.5 54l-14.5 25l105 76l12.5 -17t38.5 -37.5t67.5 -37.5t98.5 -17q36 0 68.5 4.5t57 15.5t38.5 28.5t14 42.5q0 42 -37.5 60.5t-82.5 22.5l-120 10q-49 4 -92 18t-74.5 39t-50 62.5t-18.5 87.5t23.5 90t62 67.5t89.5 42t105 14.5
q85 0 143 -24.5t92.5 -53t49.5 -53l15 -24.5l-105 -74l-9 16.5t-31.5 35.5t-60 35.5t-94.5 16.5q-66 0 -109.5 -23t-43.5 -66q0 -37 30 -55.5t78 -22.5l120 -10q53 -4 98.5 -18t79 -38.5t53 -62.5t19.5 -90q0 -54 -25 -95.5t-67 -68.5t-98 -41t-118 -14zM355 898l161 -61
l-29 -92l-132 43l-132 -43l-29 92z" />
    <glyph glyph-name="scircumflex" unicode="&#x15d;" horiz-adv-x="507" 
d="M261 -15q-68 0 -113.5 20.5t-72.5 45t-38.5 45l-11.5 20.5l97 70l7 -13.5t23 -29.5t43 -29.5t66 -13.5q58 0 82 15t24 36q0 20 -17 28t-48 11l-88 9q-71 6 -119.5 45.5t-48.5 109.5q0 40 17.5 71.5t46 52t65.5 31.5t76 11q57 0 98 -18t66.5 -39.5t37 -39.5l11.5 -18
l-93 -68l-5.5 10.5t-18.5 23.5t-36.5 23.5t-59.5 10.5q-39 0 -65 -14t-26 -37q0 -20 14 -29t49 -13l87 -10q73 -8 122.5 -43t49.5 -105q0 -39 -19 -70.5t-50 -53t-71 -33.5t-81 -12zM442 634l-46 -78l-130 68l-130 -68l-46 78l176 105z" />
    <glyph glyph-name="Scedilla" unicode="&#x15e;" horiz-adv-x="720" 
d="M362 -15q-96 0 -158.5 25t-98.5 54t-50.5 54l-14.5 25l105 76l12.5 -17t38.5 -37.5t67.5 -37.5t98.5 -17q36 0 68.5 4.5t57 15.5t38.5 28.5t14 42.5q0 42 -37.5 60.5t-82.5 22.5l-120 10q-49 4 -92 18t-74.5 39t-50 62.5t-18.5 87.5t23.5 90t62 67.5t89.5 42t105 14.5
q85 0 143 -24.5t92.5 -53t49.5 -53l15 -24.5l-105 -74l-9 16.5t-31.5 35.5t-60 35.5t-94.5 16.5q-66 0 -109.5 -23t-43.5 -66q0 -37 30 -55.5t78 -22.5l120 -10q53 -4 98.5 -18t79 -38.5t53 -62.5t19.5 -90q0 -54 -25 -95.5t-67 -68.5t-98 -41t-118 -14zM295 -87
q7 -13 23.5 -24t38.5 -11q17 0 27.5 5.5t10.5 17.5q0 9 -7 15t-17.5 10t-21.5 6t-20 3l20 78q27 -4 52 -12.5t44.5 -22.5t31 -34t11.5 -47q0 -46 -37.5 -74t-91.5 -28q-43 0 -80.5 21.5t-56.5 58.5z" />
    <glyph glyph-name="scedilla" unicode="&#x15f;" horiz-adv-x="507" 
d="M261 -15q-68 0 -113.5 20.5t-72.5 45t-38.5 45l-11.5 20.5l97 70l7 -13.5t23 -29.5t43 -29.5t66 -13.5q58 0 82 15t24 36q0 20 -17 28t-48 11l-88 9q-71 6 -119.5 45.5t-48.5 109.5q0 40 17.5 71.5t46 52t65.5 31.5t76 11q57 0 98 -18t66.5 -39.5t37 -39.5l11.5 -18
l-93 -68l-5.5 10.5t-18.5 23.5t-36.5 23.5t-59.5 10.5q-39 0 -65 -14t-26 -37q0 -20 14 -29t49 -13l87 -10q73 -8 122.5 -43t49.5 -105q0 -39 -19 -70.5t-50 -53t-71 -33.5t-81 -12zM174 -87q7 -13 23.5 -24t38.5 -11q17 0 27.5 5.5t10.5 17.5q0 9 -7 15t-17.5 10t-21.5 6
t-20 3l20 78q27 -4 52 -12.5t44.5 -22.5t31 -34t11.5 -47q0 -46 -37.5 -74t-91.5 -28q-43 0 -80.5 21.5t-56.5 58.5z" />
    <glyph glyph-name="Scaron" unicode="&#x160;" horiz-adv-x="720" 
d="M362 -15q-96 0 -158.5 25t-98.5 54t-50.5 54l-14.5 25l105 76l12.5 -17t38.5 -37.5t67.5 -37.5t98.5 -17q36 0 68.5 4.5t57 15.5t38.5 28.5t14 42.5q0 42 -37.5 60.5t-82.5 22.5l-120 10q-49 4 -92 18t-74.5 39t-50 62.5t-18.5 87.5t23.5 90t62 67.5t89.5 42t105 14.5
q85 0 143 -24.5t92.5 -53t49.5 -53l15 -24.5l-105 -74l-9 16.5t-31.5 35.5t-60 35.5t-94.5 16.5q-66 0 -109.5 -23t-43.5 -66q0 -37 30 -55.5t78 -22.5l120 -10q53 -4 98.5 -18t79 -38.5t53 -62.5t19.5 -90q0 -54 -25 -95.5t-67 -68.5t-98 -41t-118 -14zM355 745l-161 61
l29 92l132 -43l132 43l29 -92z" />
    <glyph glyph-name="scaron" unicode="&#x161;" horiz-adv-x="507" 
d="M261 -15q-68 0 -113.5 20.5t-72.5 45t-38.5 45l-11.5 20.5l97 70l7 -13.5t23 -29.5t43 -29.5t66 -13.5q58 0 82 15t24 36q0 20 -17 28t-48 11l-88 9q-71 6 -119.5 45.5t-48.5 109.5q0 40 17.5 71.5t46 52t65.5 31.5t76 11q57 0 98 -18t66.5 -39.5t37 -39.5l11.5 -18
l-93 -68l-5.5 10.5t-18.5 23.5t-36.5 23.5t-59.5 10.5q-39 0 -65 -14t-26 -37q0 -20 14 -29t49 -13l87 -10q73 -8 122.5 -43t49.5 -105q0 -39 -19 -70.5t-50 -53t-71 -33.5t-81 -12zM442 664l-176 -105l-176 105l46 78l130 -68l130 68z" />
    <glyph glyph-name="uni0162" unicode="&#x162;" horiz-adv-x="664" 
d="M286 -87q7 -13 23.5 -24t38.5 -11q17 0 27.5 5.5t10.5 17.5q0 9 -7 15t-17.5 10t-21.5 6t-20 3l17 65h-68v575h-229v125h584v-125h-230v-575q36 -13 60.5 -38t24.5 -65q0 -46 -37.5 -74t-91.5 -28q-43 0 -80.5 21.5t-56.5 58.5z" />
    <glyph glyph-name="uni0163" unicode="&#x163;" horiz-adv-x="356" 
d="M247 0q-48 0 -79 15t-49 41t-25 62t-7 77v195h-77v115h77v150h120v-150h116v-115h-116v-177q0 -43 14.5 -70.5t58.5 -27.5h46v-115h-79zM118 -87q7 -13 23.5 -24t38.5 -11q17 0 27.5 5.5t10.5 17.5q0 9 -7 15t-17.5 10t-21.5 6t-20 3l20 78q27 -4 52 -12.5t44.5 -22.5
t31 -34t11.5 -47q0 -46 -37.5 -74t-91.5 -28q-43 0 -80.5 21.5t-56.5 58.5z" />
    <glyph glyph-name="Tcaron" unicode="&#x164;" horiz-adv-x="664" 
d="M624 575h-230v-575h-125v575h-229v125h584v-125zM332 745l-161 61l29 92l132 -43l132 43l29 -92z" />
    <glyph glyph-name="tcaron" unicode="&#x165;" horiz-adv-x="356" 
d="M247 0q-48 0 -79 15t-49 41t-25 62t-7 77v195h-77v115h77v150h120v-150h116v-115h-116v-177q0 -43 14.5 -70.5t58.5 -27.5h46v-115h-79zM279 781h118l-34 -208h-99z" />
    <glyph glyph-name="Tbar" unicode="&#x166;" horiz-adv-x="664" 
d="M523 379v-125h-129v-254h-125v254h-129v125h129v196h-229v125h584v-125h-230v-196h129z" />
    <glyph glyph-name="tbar" unicode="&#x167;" horiz-adv-x="356" 
d="M247 0q-48 0 -79 15t-49 41t-25 62t-7 77v35h-77v81h77v79h-77v115h77v150h120v-150h116v-115h-116v-79h116v-81h-116v-17q0 -43 14.5 -70.5t58.5 -27.5h46v-115h-79z" />
    <glyph glyph-name="Utilde" unicode="&#x168;" horiz-adv-x="744" 
d="M669 700v-418q0 -68 -23.5 -123t-64 -93.5t-94.5 -59.5t-115 -21t-115 21t-94.5 59.5t-64 93.5t-23.5 123v418h125v-418q0 -41 14.5 -73t38 -54t54.5 -33.5t65 -11.5t65 11.5t54.5 33.5t38 54t14.5 73v418h125zM492 889l59 -85l-8 -9t-22.5 -20.5t-34 -20.5t-43.5 -9
q-18 0 -34.5 5t-32 11.5t-30.5 11.5t-30 5q-12 0 -23.5 -5t-20 -11.5t-13.5 -11.5l-5 -5l-59 85l8 9t22.5 20.5t34 20.5t43.5 9q18 0 34.5 -5t32 -11.5t30.5 -11.5t30 -5q12 0 23.5 5t20 11.5t13.5 11.5z" />
    <glyph glyph-name="utilde" unicode="&#x169;" horiz-adv-x="624" 
d="M181 505v-280q0 -58 33.5 -91.5t90.5 -33.5q56 0 95.5 33.5t39.5 105.5v266h120v-505h-120v79q-6 -11 -19.5 -27.5t-35 -31t-50 -25t-63.5 -10.5q-101 0 -156.5 62t-54.5 170v288h120zM368 569q-19 0 -34.5 5.5t-30 12t-29 12t-30.5 5.5q-19 0 -33 -11.5t-24 -23.5
l-45 81q6 7 16.5 17t24 19.5t30 16t34.5 6.5q19 0 34.5 -5.5t30 -12t28.5 -12t30 -5.5q20 0 34.5 12t24.5 23l45 -81q-6 -7 -16.5 -17t-24.5 -19.5t-30.5 -16t-34.5 -6.5z" />
    <glyph glyph-name="Umacron" unicode="&#x16a;" horiz-adv-x="744" 
d="M669 700v-418q0 -68 -23.5 -123t-64 -93.5t-94.5 -59.5t-115 -21t-115 21t-94.5 59.5t-64 93.5t-23.5 123v418h125v-418q0 -41 14.5 -73t38 -54t54.5 -33.5t65 -11.5t65 11.5t54.5 33.5t38 54t14.5 73v418h125zM231 760v100h282v-100h-282z" />
    <glyph glyph-name="umacron" unicode="&#x16b;" horiz-adv-x="624" 
d="M181 505v-280q0 -58 33.5 -91.5t90.5 -33.5q56 0 95.5 33.5t39.5 105.5v266h120v-505h-120v79q-6 -11 -19.5 -27.5t-35 -31t-50 -25t-63.5 -10.5q-101 0 -156.5 62t-54.5 170v288h120zM169 565v100h282v-100h-282z" />
    <glyph glyph-name="Ubreve" unicode="&#x16c;" horiz-adv-x="744" 
d="M669 700v-418q0 -68 -23.5 -123t-64 -93.5t-94.5 -59.5t-115 -21t-115 21t-94.5 59.5t-64 93.5t-23.5 123v418h125v-418q0 -41 14.5 -73t38 -54t54.5 -33.5t65 -11.5t65 11.5t54.5 33.5t38 54t14.5 73v418h125zM315 882q2 -19 15 -32t42 -13t42 13t15 32l90 -15
q-7 -54 -42 -88t-105 -34t-105 36.5t-42 85.5z" />
    <glyph glyph-name="ubreve" unicode="&#x16d;" horiz-adv-x="624" 
d="M181 505v-280q0 -58 33.5 -91.5t90.5 -33.5q56 0 95.5 33.5t39.5 105.5v266h120v-505h-120v79q-6 -11 -19.5 -27.5t-35 -31t-50 -25t-63.5 -10.5q-101 0 -156.5 62t-54.5 170v288h120zM310 651q25 0 37 12t14 29l87 -16q-7 -46 -39 -79.5t-99 -33.5t-99 33.5t-39 79.5
l87 16q2 -17 14 -29t37 -12z" />
    <glyph glyph-name="Uring" unicode="&#x16e;" horiz-adv-x="744" 
d="M669 700v-418q0 -68 -23.5 -123t-64 -93.5t-94.5 -59.5t-115 -21t-115 21t-94.5 59.5t-64 93.5t-23.5 123v418h125v-418q0 -41 14.5 -73t38 -54t54.5 -33.5t65 -11.5t65 11.5t54.5 33.5t38 54t14.5 73v418h125zM243 874q0 54 37.5 91.5t91.5 37.5t91.5 -37.5t37.5 -91.5
t-37.5 -91.5t-91.5 -37.5t-91.5 37.5t-37.5 91.5zM331 874q0 -17 12 -29t29 -12t29 12t12 29t-12 29t-29 12t-29 -12t-12 -29z" />
    <glyph glyph-name="uring" unicode="&#x16f;" horiz-adv-x="624" 
d="M181 505v-280q0 -58 33.5 -91.5t90.5 -33.5q56 0 95.5 33.5t39.5 105.5v266h120v-505h-120v79q-6 -11 -19.5 -27.5t-35 -31t-50 -25t-63.5 -10.5q-101 0 -156.5 62t-54.5 170v288h120zM193 677q0 49 34 83t83 34t83.5 -34t34.5 -83t-34.5 -83.5t-83.5 -34.5t-83 34.5
t-34 83.5zM269 676q0 -17 12 -29t29 -12t29 12t12 29t-12 29t-29 12t-29 -12t-12 -29z" />
    <glyph glyph-name="Uhungarumlaut" unicode="&#x170;" horiz-adv-x="744" 
d="M669 700v-418q0 -68 -23.5 -123t-64 -93.5t-94.5 -59.5t-115 -21t-115 21t-94.5 59.5t-64 93.5t-23.5 123v418h125v-418q0 -41 14.5 -73t38 -54t54.5 -33.5t65 -11.5t65 11.5t54.5 33.5t38 54t14.5 73v418h125zM296 926l97 -61l-90 -120l-80 49zM465 926l97 -61l-90 -120
l-80 49z" />
    <glyph glyph-name="uhungarumlaut" unicode="&#x171;" horiz-adv-x="624" 
d="M181 505v-280q0 -58 33.5 -91.5t90.5 -33.5q56 0 95.5 33.5t39.5 105.5v266h120v-505h-120v79q-6 -11 -19.5 -27.5t-35 -31t-50 -25t-63.5 -10.5q-101 0 -156.5 62t-54.5 170v288h120zM258 768l83 -73l-129 -136l-71 61zM444 768l83 -73l-129 -136l-71 61z" />
    <glyph glyph-name="Uogonek" unicode="&#x172;" horiz-adv-x="744" 
d="M669 700v-418q0 -68 -23.5 -123t-64 -93.5t-94.5 -59.5t-115 -21t-115 21t-94.5 59.5t-64 93.5t-23.5 123v418h125v-418q0 -41 14.5 -73t38 -54t54.5 -33.5t65 -11.5t65 11.5t54.5 33.5t38 54t14.5 73v418h125zM447 -193q-4 -1 -13 -1.5t-17 -0.5q-54 0 -91.5 28
t-37.5 74q0 36 25.5 65t84.5 36l49 -8q-34 -10 -51 -31.5t-17 -41.5q0 -19 13 -28.5t31 -9.5q6 0 12.5 1.5t11.5 3.5v-87z" />
    <glyph glyph-name="uogonek" unicode="&#x173;" horiz-adv-x="624" 
d="M181 505v-280q0 -58 33.5 -91.5t90.5 -33.5q56 0 95.5 33.5t39.5 105.5v266h120v-505h-120v79q-6 -11 -19.5 -27.5t-35 -31t-50 -25t-63.5 -10.5q-101 0 -156.5 62t-54.5 170v288h120zM524 -193q-4 -1 -13 -1.5t-17 -0.5q-54 0 -91.5 28t-37.5 74q0 36 25.5 65t84.5 36
l49 -8q-34 -10 -51 -31.5t-17 -41.5q0 -19 13 -28.5t31 -9.5q6 0 12.5 1.5t11.5 3.5v-87z" />
    <glyph glyph-name="Wcircumflex" unicode="&#x174;" horiz-adv-x="1017" 
d="M160 700l119 -581l120 581h220l119 -579l119 579h135l-144 -700h-220l-119 578l-119 -578h-221l-144 700h135zM509 898l161 -61l-29 -92l-132 43l-132 -43l-29 92z" />
    <glyph glyph-name="wcircumflex" unicode="&#x175;" horiz-adv-x="769" 
d="M321 505h127l101 -391l87 391h128l-136 -505h-158l-86 345l-85 -345h-158l-136 505h128l87 -391zM561 634l-46 -78l-130 68l-130 -68l-46 78l176 105z" />
    <glyph glyph-name="Ycircumflex" unicode="&#x176;" horiz-adv-x="692" 
d="M408 0h-125v218l-258 482h135l186 -349l186 349h135l-259 -482v-218zM346 898l161 -61l-29 -92l-132 43l-132 -43l-29 92z" />
    <glyph glyph-name="ycircumflex" unicode="&#x177;" horiz-adv-x="529" 
d="M401 505h123l-200 -504l1 -1h-1l-69 -175h-120l70 180l-200 500h123l136 -350zM441 634l-46 -78l-130 68l-130 -68l-46 78l176 105z" />
    <glyph glyph-name="Ydieresis" unicode="&#x178;" horiz-adv-x="692" 
d="M408 0h-125v218l-258 482h135l186 -349l186 349h135l-259 -482v-218zM176 810q0 31 20.5 51t50.5 20t50.5 -20t20.5 -51q0 -30 -20.5 -50.5t-50.5 -20.5t-50.5 20.5t-20.5 50.5zM374 810q0 31 20.5 51t50.5 20t50.5 -20t20.5 -51q0 -30 -20.5 -50.5t-50.5 -20.5
t-50.5 20.5t-20.5 50.5z" />
    <glyph glyph-name="Zacute" unicode="&#x179;" horiz-adv-x="685" 
d="M65 700h540v-125l-379 -450h399v-125h-565v125l379 450h-374v125zM455 906l26 -112l-254 -49l-22 92z" />
    <glyph glyph-name="zacute" unicode="&#x17a;" horiz-adv-x="504" 
d="M54 390v115h401v-115l-256 -275h270v-115h-419v115l255 275h-251zM364 741l39 -109l-241 -73l-32 86z" />
    <glyph glyph-name="Zdotaccent" unicode="&#x17b;" horiz-adv-x="685" 
d="M65 700h540v-125l-379 -450h399v-125h-565v125l379 450h-374v125zM264 829q0 34 23 56.5t56 22.5t56 -22.5t23 -56.5t-23 -56.5t-56 -22.5t-56 22.5t-23 56.5z" />
    <glyph glyph-name="zdotaccent" unicode="&#x17c;" horiz-adv-x="504" 
d="M54 390v115h401v-115l-256 -275h270v-115h-419v115l255 275h-251zM179 642q0 34 23 56.5t56 22.5t56 -22.5t23 -56.5t-23 -56.5t-56 -22.5t-56 22.5t-23 56.5z" />
    <glyph glyph-name="Zcaron" unicode="&#x17d;" horiz-adv-x="685" 
d="M65 700h540v-125l-379 -450h399v-125h-565v125l379 450h-374v125zM343 745l-161 61l29 92l132 -43l132 43l29 -92z" />
    <glyph glyph-name="zcaron" unicode="&#x17e;" horiz-adv-x="504" 
d="M54 390v115h401v-115l-256 -275h270v-115h-419v115l255 275h-251zM433 664l-176 -105l-176 105l46 78l130 -68l130 68z" />
    <glyph glyph-name="florin" unicode="&#x192;" horiz-adv-x="485" 
d="M40 411h123l-24 119q-15 71 19.5 120.5t125.5 49.5h160v-121h-184l35 -168h150v-121h-125l25 -120q14 -71 -20 -120.5t-125 -49.5h-160v121h184l-36 169h-148v121z" />
    <glyph glyph-name="Aringacute" unicode="&#x1fa;" horiz-adv-x="778" 
d="M623 0l-70 180h-329l-69 -180h-135l270 700q-14 16 -22 37.5t-8 45.5q0 54 37.5 91.5t91.5 37.5t91.5 -37.5t37.5 -91.5q0 -24 -8 -45.5t-22 -37.5l270 -700h-135zM348 783q0 -17 12 -29t29 -12t29 12t12 29t-12 29t-29 12t-29 -12t-12 -29zM272 305h233l-116 301z
M496 1082l26 -112l-254 -49l-22 92z" />
    <glyph glyph-name="aringacute" unicode="&#x1fb;" horiz-adv-x="630" 
d="M445 0v66q-19 -28 -61.5 -54.5t-107.5 -26.5q-50 0 -94.5 20t-76.5 55.5t-51 85t-19 107.5t19 107.5t51 84.5t76.5 55t94.5 20q64 0 107 -27t62 -55v67h120v-505h-120zM300 100q63 0 104 42t41 111t-41 110.5t-104 41.5t-104 -41.5t-41 -110.5t41 -111t104 -42zM183 677
q0 49 34 83t83 34t83.5 -34t34.5 -83t-34.5 -83.5t-83.5 -34.5t-83 34.5t-34 83.5zM259 676q0 -17 12 -29t29 -12t29 12t12 29t-12 29t-29 12t-29 -12t-12 -29zM405 992l39 -109l-241 -73l-32 86z" />
    <glyph glyph-name="AEacute" unicode="&#x1fc;" horiz-adv-x="1138" 
d="M1058 575h-395v-162h390v-124h-390v-164h400v-125h-525v180h-295l-83 -180h-140l330 700h708v-125zM299 305h239v270h-116zM850 906l26 -112l-254 -49l-22 92z" />
    <glyph glyph-name="aeacute" unicode="&#x1fd;" horiz-adv-x="991" 
d="M445 0v66q-19 -28 -61.5 -54.5t-107.5 -26.5q-50 0 -94.5 20t-76.5 55.5t-51 85t-19 107.5t19 107.5t51 84.5t76.5 55t94.5 20q64 0 107 -27t62 -55v67h120v-21q30 17 65 26.5t75 9.5q59 0 107 -20.5t81 -56.5t50.5 -85t17.5 -106q0 -16 -1 -26.5l-1 -10.5h-394
q5 -43 43 -79t98 -36q42 0 74.5 18.5t48.5 52.5l113 -37q-31 -75 -97 -112t-140 -37q-39 0 -74.5 9.5t-65.5 27.5v-22h-120zM840 302q-4 18 -13 36t-25 33t-39.5 24.5t-56.5 9.5q-31 0 -55.5 -10t-41 -25t-27.5 -33.5t-15 -34.5h273zM300 100q63 0 104 42t41 111t-41 110.5
t-104 41.5t-104 -41.5t-41 -110.5t41 -111t104 -42zM615 741l39 -109l-241 -73l-32 86z" />
    <glyph glyph-name="Oslashacute" unicode="&#x1fe;" horiz-adv-x="794" 
d="M50 350q0 79 26.5 146t73 115.5t110 76t137.5 27.5q54 0 103 -15t89 -42l57 67l84 -70l-61 -73q35 -46 55 -105.5t20 -126.5q0 -79 -26.5 -146t-73 -115.5t-110 -76t-137.5 -27.5q-52 0 -99 13.5t-87 38.5l-61 -72l-84 70l63 76q-37 46 -58 107.5t-21 131.5zM397 590
q-101 0 -161.5 -66.5t-60.5 -173.5q0 -41 9.5 -77.5t26.5 -64.5l298 354q-24 13 -52.5 20.5t-59.5 7.5zM619 350q0 38 -8 72t-24 62l-295 -350q22 -12 48.5 -18t56.5 -6q101 0 161.5 66.5t60.5 173.5zM509 906l26 -112l-254 -49l-22 92z" />
    <glyph glyph-name="oslashacute" unicode="&#x1ff;" horiz-adv-x="600" 
d="M565 252q0 -58 -20 -107.5t-55 -84.5t-84 -55t-106 -20q-37 0 -70 8t-61 23l-43 -51l-75 62l43 51q-28 34 -43.5 78.5t-15.5 95.5q0 58 19.5 107.5t54.5 85t84 55.5t107 20q38 0 72.5 -9t63.5 -25l39 46l75 -62l-40 -48q26 -34 40.5 -77.5t14.5 -92.5zM155 252
q0 -22 5 -42.5t13 -36.5l186 221q-13 5 -28 8t-31 3q-63 0 -104 -42t-41 -111zM445 252q0 21 -4.5 39.5t-11.5 34.5l-182 -217q12 -4 25.5 -6.5t27.5 -2.5q62 0 103.5 41.5t41.5 110.5zM407 741l39 -109l-241 -73l-32 86z" />
    <glyph glyph-name="Scommaaccent" unicode="&#x218;" horiz-adv-x="720" 
d="M362 -15q-96 0 -158.5 25t-98.5 54t-50.5 54l-14.5 25l105 76l12.5 -17t38.5 -37.5t67.5 -37.5t98.5 -17q36 0 68.5 4.5t57 15.5t38.5 28.5t14 42.5q0 42 -37.5 60.5t-82.5 22.5l-120 10q-49 4 -92 18t-74.5 39t-50 62.5t-18.5 87.5t23.5 90t62 67.5t89.5 42t105 14.5
q85 0 143 -24.5t92.5 -53t49.5 -53l15 -24.5l-105 -74l-9 16.5t-31.5 35.5t-60 35.5t-94.5 16.5q-66 0 -109.5 -23t-43.5 -66q0 -37 30 -55.5t78 -22.5l120 -10q53 -4 98.5 -18t79 -38.5t53 -62.5t19.5 -90q0 -54 -25 -95.5t-67 -68.5t-98 -41t-118 -14zM302 -36h129
l-63 -223h-107z" />
    <glyph glyph-name="scommaaccent" unicode="&#x219;" horiz-adv-x="507" 
d="M261 -15q-68 0 -113.5 20.5t-72.5 45t-38.5 45l-11.5 20.5l97 70l7 -13.5t23 -29.5t43 -29.5t66 -13.5q58 0 82 15t24 36q0 20 -17 28t-48 11l-88 9q-71 6 -119.5 45.5t-48.5 109.5q0 40 17.5 71.5t46 52t65.5 31.5t76 11q57 0 98 -18t66.5 -39.5t37 -39.5l11.5 -18
l-93 -68l-5.5 10.5t-18.5 23.5t-36.5 23.5t-59.5 10.5q-39 0 -65 -14t-26 -37q0 -20 14 -29t49 -13l87 -10q73 -8 122.5 -43t49.5 -105q0 -39 -19 -70.5t-50 -53t-71 -33.5t-81 -12zM181 -36h129l-63 -223h-107z" />
    <glyph glyph-name="Tcommaaccent" unicode="&#x21a;" horiz-adv-x="664" 
d="M624 575h-230v-575h-125v575h-229v125h584v-125zM266 -36h129l-63 -223h-107z" />
    <glyph glyph-name="tcommaaccent" unicode="&#x21b;" horiz-adv-x="356" 
d="M247 0q-48 0 -79 15t-49 41t-25 62t-7 77v195h-77v115h77v150h120v-150h116v-115h-116v-177q0 -43 14.5 -70.5t58.5 -27.5h46v-115h-79zM125 -36h129l-63 -223h-107z" />
    <glyph glyph-name="dotlessj" unicode="&#x237;" horiz-adv-x="255" 
d="M70 3v502h120v-524q0 -96 -45.5 -133.5t-137.5 -37.5q-12 0 -24 1l-12 1v112h23q41 0 58.5 16.5t17.5 62.5z" />
    <glyph glyph-name="circumflex" unicode="&#x2c6;" 
d="M426 634l-46 -78l-130 68l-130 -68l-46 78l176 105z" />
    <glyph glyph-name="caron" unicode="&#x2c7;" 
d="M426 664l-176 -105l-176 105l46 78l130 -68l130 68z" />
    <glyph glyph-name="uni02C9" unicode="&#x2c9;" 
d="M109 565v100h282v-100h-282z" />
    <glyph glyph-name="breve" unicode="&#x2d8;" 
d="M250 651q25 0 37 12t14 29l87 -16q-7 -46 -39 -79.5t-99 -33.5t-99 33.5t-39 79.5l87 16q2 -17 14 -29t37 -12z" />
    <glyph glyph-name="dotaccent" unicode="&#x2d9;" horiz-adv-x="501" 
d="M172 642q0 34 23 56.5t56 22.5t56 -22.5t23 -56.5t-23 -56.5t-56 -22.5t-56 22.5t-23 56.5z" />
    <glyph glyph-name="ring" unicode="&#x2da;" 
d="M133 677q0 49 34 83t83 34t83.5 -34t34.5 -83t-34.5 -83.5t-83.5 -34.5t-83 34.5t-34 83.5zM209 676q0 -17 12 -29t29 -12t29 12t12 29t-12 29t-29 12t-29 -12t-12 -29z" />
    <glyph glyph-name="ogonek" unicode="&#x2db;" horiz-adv-x="501" 
d="M330 -193q-4 -1 -13 -1.5t-17 -0.5q-54 0 -91.5 28t-37.5 74q0 36 25.5 65t84.5 36l49 -8q-34 -10 -51 -31.5t-17 -41.5q0 -19 13 -28.5t31 -9.5q6 0 12.5 1.5t11.5 3.5v-87z" />
    <glyph glyph-name="tilde" unicode="&#x2dc;" 
d="M308 569q-19 0 -34.5 5.5t-30 12t-29 12t-30.5 5.5q-19 0 -33 -11.5t-24 -23.5l-45 81q6 7 16.5 17t24 19.5t30 16t34.5 6.5q19 0 34.5 -5.5t30 -12t28.5 -12t30 -5.5q20 0 34.5 12t24.5 23l45 -81q-6 -7 -16.5 -17t-24.5 -19.5t-30.5 -16t-34.5 -6.5z" />
    <glyph glyph-name="hungarumlaut" unicode="&#x2dd;" 
d="M178 768l83 -73l-129 -136l-71 61zM364 768l83 -73l-129 -136l-71 61z" />
    <glyph glyph-name="Deltagreek" unicode="&#x394;" horiz-adv-x="722" 
d="M25 0l240 700h192l240 -700h-672zM203 125h316l-158 461z" />
    <glyph glyph-name="Omegagreek" unicode="&#x3a9;" horiz-adv-x="714" 
d="M402 0v250q60 15 96.5 59t36.5 110q0 77 -51 124.5t-127 47.5t-127 -47.5t-51 -124.5q0 -66 36.5 -110t96.5 -59v-250h-240v125h115v60q-57 32 -97 91t-40 148q0 69 26.5 123.5t69 91.5t98 56.5t113.5 19.5q57 0 112.5 -19.5t98.5 -56.5t69.5 -91.5t26.5 -123.5
q0 -90 -39.5 -149.5t-97.5 -90.5v-59h115v-125h-240z" />
    <glyph glyph-name="mugreek" unicode="&#x3bc;" horiz-adv-x="744" 
d="M74 525h125v-251q0 -39 14.5 -69.5t39 -51.5t55.5 -32t64 -11q34 0 65 11.5t54.5 33.5t38 54t14.5 73v243h125v-243q0 -68 -23.5 -123t-64 -93.5t-94.5 -59.5t-115 -21q-48 0 -92.5 13.5t-80.5 41.5v-140h-125v625z" />
    <glyph glyph-name="pi" unicode="&#x3c0;" horiz-adv-x="600" 
d="M495 0h-115v383h-134l-86 -383h-115l86 383h-81v116h505v-116h-60v-383z" />
    <glyph glyph-name="Wgrave" unicode="&#x1e80;" horiz-adv-x="1017" 
d="M160 700l119 -581l120 581h220l119 -579l119 579h135l-144 -700h-220l-119 578l-119 -578h-221l-144 700h135zM371 794l26 112l250 -69l-22 -92z" />
    <glyph glyph-name="wgrave" unicode="&#x1e81;" horiz-adv-x="769" 
d="M321 505h127l101 -391l87 391h128l-136 -505h-158l-86 345l-85 -345h-158l-136 505h128l87 -391zM298 741l234 -96l-32 -86l-241 73z" />
    <glyph glyph-name="Wacute" unicode="&#x1e82;" horiz-adv-x="1017" 
d="M160 700l119 -581l120 581h220l119 -579l119 579h135l-144 -700h-220l-119 578l-119 -578h-221l-144 700h135zM621 906l26 -112l-254 -49l-22 92z" />
    <glyph glyph-name="wacute" unicode="&#x1e83;" horiz-adv-x="769" 
d="M321 505h127l101 -391l87 391h128l-136 -505h-158l-86 345l-85 -345h-158l-136 505h128l87 -391zM492 741l39 -109l-241 -73l-32 86z" />
    <glyph glyph-name="Wdieresis" unicode="&#x1e84;" horiz-adv-x="1017" 
d="M160 700l119 -581l120 581h220l119 -579l119 579h135l-144 -700h-220l-119 578l-119 -578h-221l-144 700h135zM339 810q0 31 20.5 51t50.5 20t50.5 -20t20.5 -51q0 -30 -20.5 -50.5t-50.5 -20.5t-50.5 20.5t-20.5 50.5zM537 810q0 31 20.5 51t50.5 20t50.5 -20t20.5 -51
q0 -30 -20.5 -50.5t-50.5 -20.5t-50.5 20.5t-20.5 50.5z" />
    <glyph glyph-name="wdieresis" unicode="&#x1e85;" horiz-adv-x="769" 
d="M321 505h127l101 -391l87 391h128l-136 -505h-158l-86 345l-85 -345h-158l-136 505h128l87 -391zM215 645q0 31 20.5 51t50.5 20t50.5 -20t20.5 -51q0 -30 -20.5 -50.5t-50.5 -20.5t-50.5 20.5t-20.5 50.5zM413 645q0 31 20.5 51t50.5 20t50.5 -20t20.5 -51
q0 -30 -20.5 -50.5t-50.5 -20.5t-50.5 20.5t-20.5 50.5z" />
    <glyph glyph-name="Ygrave" unicode="&#x1ef2;" horiz-adv-x="692" 
d="M408 0h-125v218l-258 482h135l186 -349l186 349h135l-259 -482v-218zM208 794l26 112l250 -69l-22 -92z" />
    <glyph glyph-name="ygrave" unicode="&#x1ef3;" horiz-adv-x="529" 
d="M401 505h123l-200 -504l1 -1h-1l-69 -175h-120l70 180l-200 500h123l136 -350zM178 741l234 -96l-32 -86l-241 73z" />
    <glyph glyph-name="thinspace" unicode="&#x2009;" horiz-adv-x="125" 
 />
    <glyph glyph-name="endash" unicode="&#x2013;" horiz-adv-x="570" 
d="M85 200v125h400v-125h-400z" />
    <glyph glyph-name="emdash" unicode="&#x2014;" horiz-adv-x="997" 
d="M85 200v125h827v-125h-827z" />
    <glyph glyph-name="quoteleft" unicode="&#x2018;" horiz-adv-x="311" 
d="M187 426h-131l81 288h103z" />
    <glyph glyph-name="quoteright" unicode="&#x2019;" horiz-adv-x="311" 
d="M124 714h131l-81 -288h-103z" />
    <glyph glyph-name="quotesinglbase" unicode="&#x201a;" horiz-adv-x="311" 
d="M119 143h131l-81 -288h-103z" />
    <glyph glyph-name="quotedblleft" unicode="&#x201c;" horiz-adv-x="516" 
d="M187 426h-131l81 288h103zM390 426h-131l81 288h103z" />
    <glyph glyph-name="quotedblright" unicode="&#x201d;" horiz-adv-x="516" 
d="M329 714h131l-81 -288h-103zM126 714h131l-81 -288h-103z" />
    <glyph glyph-name="quotedblbase" unicode="&#x201e;" horiz-adv-x="516" 
d="M329 143h131l-81 -288h-103zM126 143h131l-81 -288h-103z" />
    <glyph glyph-name="dagger" unicode="&#x2020;" horiz-adv-x="580" 
d="M227 -100v490h-187v125h187v185h125v-185h188v-125h-188v-490h-125z" />
    <glyph glyph-name="daggerdbl" unicode="&#x2021;" horiz-adv-x="580" 
d="M540 85h-188v-185h-125v185h-187v125h187v180h-187v125h187v185h125v-185h188v-125h-188v-180h188v-125z" />
    <glyph glyph-name="bullet" unicode="&#x2022;" horiz-adv-x="470" 
d="M85 350q0 61 44 105.5t106 44.5q61 0 105.5 -44.5t44.5 -105.5q0 -62 -44.5 -106t-105.5 -44q-62 0 -106 44t-44 106z" />
    <glyph glyph-name="ellipsis" unicode="&#x2026;" horiz-adv-x="818" 
d="M76 64q0 34 23 56.5t56 22.5t56 -22.5t23 -56.5t-23 -56.5t-56 -22.5t-56 22.5t-23 56.5zM584 64q0 34 23 56.5t56 22.5t56 -22.5t23 -56.5t-23 -56.5t-56 -22.5t-56 22.5t-23 56.5zM330 64q0 34 23 56.5t56 22.5t56 -22.5t23 -56.5t-23 -56.5t-56 -22.5t-56 22.5
t-23 56.5z" />
    <glyph glyph-name="perthousand" unicode="&#x2030;" horiz-adv-x="1205" 
d="M178 295q-49 0 -88.5 31.5t-39.5 98.5v155q0 67 39.5 98.5t88.5 31.5t88 -31.5t39 -98.5v-155q0 -67 -39 -98.5t-88 -31.5zM175 0l395 700h114l-395 -700h-114zM219 575q0 22 -10 35.5t-31 13.5q-22 0 -32 -13.5t-10 -35.5v-145q0 -22 10 -35.5t31 -13.5q22 0 32 13.5
t10 35.5v145zM688 -10q-49 0 -88.5 31.5t-39.5 98.5v155q0 67 39.5 98.5t88.5 31.5t88 -31.5t39 -98.5v-155q0 -67 -39 -98.5t-88 -31.5zM1028 -10q-49 0 -88.5 31.5t-39.5 98.5v155q0 67 39.5 98.5t88.5 31.5t88 -31.5t39 -98.5v-155q0 -67 -39 -98.5t-88 -31.5zM729 270
q0 22 -10 35.5t-31 13.5q-22 0 -32 -13.5t-10 -35.5v-145q0 -22 10 -35.5t31 -13.5q22 0 32 13.5t10 35.5v145zM1069 270q0 22 -10 35.5t-31 13.5q-22 0 -32 -13.5t-10 -35.5v-145q0 -22 10 -35.5t31 -13.5q22 0 32 13.5t10 35.5v145z" />
    <glyph glyph-name="guilsinglleft" unicode="&#x2039;" horiz-adv-x="345" 
d="M40 255l115 250h130l-115 -250l115 -250h-130z" />
    <glyph glyph-name="guilsinglright" unicode="&#x203a;" horiz-adv-x="345" 
d="M305 255l-115 -250h-130l115 250l-115 250h130z" />
    <glyph glyph-name="fraction" unicode="&#x2044;" horiz-adv-x="599" 
d="M45 0l395 700h114l-395 -700h-114z" />
    <glyph glyph-name="foursuperior" unicode="&#x2074;" horiz-adv-x="354" 
d="M40 468l128 232h101v-232h45v-85h-45v-83h-86v83h-143v85zM120 468h63v115z" />
    <glyph glyph-name="oneinferior" unicode="&#x2081;" horiz-adv-x="224" 
d="M179 0h-86v270h-73v69q38 1 58 17t25 44h76v-400z" />
    <glyph glyph-name="twoinferior" unicode="&#x2082;" horiz-adv-x="354" 
d="M311 288q0 -45 -25.5 -73t-53.5 -53l-79 -71h155v-91h-263v51q0 54 23.5 82.5t62.5 59.5l63 51q13 11 18.5 20t5.5 19q0 15 -10.5 25.5t-27.5 10.5q-19 0 -31 -11.5t-12 -33.5v-14h-92v30q0 52 38.5 86t94.5 34q57 0 95 -35t38 -87z" />
    <glyph glyph-name="threeinferior" unicode="&#x2083;" horiz-adv-x="364" 
d="M141 278h-91q0 60 38.5 96t95.5 36q56 0 93.5 -34.5t37.5 -83.5q0 -25 -10 -46t-32 -39q22 -17 32 -39t10 -50q0 -49 -35.5 -86t-95.5 -37t-97 36.5t-37 93.5h91q0 -21 12 -32t30 -11q19 0 30 11t11 31q0 18 -12.5 28.5t-29.5 10.5h-32v85h33q19 0 30 10.5t11 28.5
q0 17 -11 27t-30 10t-30.5 -12.5t-11.5 -33.5z" />
    <glyph glyph-name="fourinferior" unicode="&#x2084;" horiz-adv-x="354" 
d="M40 168l128 232h101v-232h45v-85h-45v-83h-86v83h-143v85zM120 168h63v115z" />
    <glyph glyph-name="Euro" unicode="&#x20ac;" horiz-adv-x="806" 
d="M766 205q-33 -104 -119.5 -162t-199.5 -58q-111 0 -197 60.5t-124 159.5h-106v110h81q-1 8 -1 17v18v15t1 15h-81v110h104q37 101 123.5 163t199.5 62q112 0 196.5 -55t121.5 -161l-113 -52q-21 63 -74 103t-131 40q-63 0 -111 -27t-76 -73h241v-110h-275q-1 -7 -1 -15
v-15q0 -9 0.5 -18t1.5 -17h274v-110h-238q28 -45 75.5 -70t108.5 -25q80 0 133 41t73 106z" />
    <glyph glyph-name="numero" unicode="&#x2116;" horiz-adv-x="1238" 
d="M1005 343q-81 0 -132 52t-51 131q0 78 52.5 130t130.5 52t130.5 -52t52.5 -130q0 -79 -51 -131t-132 -52zM526 0l-316 590v-590h-125v700h206l316 -590v590h125v-700h-206zM1005 431q39 0 65 26t26 69q0 42 -26 68.5t-65 26.5t-65 -26.5t-26 -68.5q0 -43 26 -69t65 -26z
M832 176v87h347v-87h-347z" />
    <glyph glyph-name="published" unicode="&#x2117;" horiz-adv-x="794" 
d="M50 350q0 79 26.5 146t73 115.5t110 76t137.5 27.5t137.5 -27.5t110 -76t73 -115.5t26.5 -146t-26.5 -146t-73 -115.5t-110 -76t-137.5 -27.5t-137.5 27.5t-110 76t-73 115.5t-26.5 146zM654 350q0 125 -69 200t-188 75t-188 -75t-69 -200t69 -200t188 -75t188 75t69 200
zM346 272v-97h-93v350h193q61 0 99 -33t38 -92t-38 -93.5t-99 -34.5h-100zM450 432h-104v-67h104q20 0 30.5 8.5t10.5 25.5q0 18 -10.5 25.5t-30.5 7.5z" />
    <glyph glyph-name="trademark" unicode="&#x2122;" horiz-adv-x="893" 
d="M750 350v222l-81 -222h-116l-81 222v-222h-93v350h140l92 -255l92 255h140v-350h-93zM312 607h-100v-257h-93v257h-99v93h292v-93z" />
    <glyph glyph-name="Omega" unicode="&#x2126;" horiz-adv-x="714" 
d="M402 0v250q60 15 96.5 59t36.5 110q0 77 -51 124.5t-127 47.5t-127 -47.5t-51 -124.5q0 -66 36.5 -110t96.5 -59v-250h-240v125h115v60q-57 32 -97 91t-40 148q0 69 26.5 123.5t69 91.5t98 56.5t113.5 19.5q57 0 112.5 -19.5t98.5 -56.5t69.5 -91.5t26.5 -123.5
q0 -90 -39.5 -149.5t-97.5 -90.5v-59h115v-125h-240z" />
    <glyph glyph-name="partialdiff" unicode="&#x2202;" horiz-adv-x="468" 
d="M130 700h130l130 -246q20 -38 34 -85t14 -113v-57q0 -46 -16 -84.5t-43.5 -66t-65 -43t-79.5 -15.5t-79.5 15.5t-65 43t-43.5 66t-16 84.5v33q0 91 55 149.5t139 58.5q17 0 32 -3.5t29 -10.5zM234 105q37 0 63 25t26 69v36q0 43 -26.5 66.5t-62.5 23.5q-37 0 -63 -25
t-26 -69v-32q0 -44 26 -69t63 -25z" />
    <glyph glyph-name="Delta" unicode="&#x2206;" horiz-adv-x="722" 
d="M25 0l240 700h192l240 -700h-672zM203 125h316l-158 461z" />
    <glyph glyph-name="product" unicode="&#x220f;" horiz-adv-x="735" 
d="M650 -100h-125v674h-315v-674h-125v800h565v-800z" />
    <glyph glyph-name="summation" unicode="&#x2211;" horiz-adv-x="625" 
d="M590 575h-360l220 -167v-104l-220 -179h360v-125h-555v126l275 231l-275 217v126h555v-125z" />
    <glyph glyph-name="minus" unicode="&#x2212;" horiz-adv-x="547" 
d="M65 243v123h417v-123h-417z" />
    <glyph glyph-name="radical" unicode="&#x221a;" horiz-adv-x="702" 
d="M20 500h232l107 -386l161 586h132l-200 -700h-186l-110 375h-136v125z" />
    <glyph glyph-name="infinity" unicode="&#x221e;" horiz-adv-x="828" 
d="M414 263l-32 -36q-34 -39 -69 -58t-78 -19q-42 0 -78 16.5t-61.5 43.5t-40.5 63.5t-15 76.5t15 76.5t40.5 63.5t61.5 43.5t78 16.5q41 0 77 -19t70 -58l32 -37l32 36q34 39 69 58t78 19q42 0 78 -16.5t61.5 -43.5t40.5 -63.5t15 -76.5t-15 -76.5t-40.5 -63.5t-61.5 -43.5
t-78 -16.5q-41 0 -77 19t-70 58zM597 434q-25 0 -44.5 -13.5t-35.5 -33.5l-31 -38l32 -39q16 -20 35 -33t44 -13q28 0 53.5 23t25.5 62t-25.5 62t-53.5 23zM231 434q-28 0 -53.5 -23t-25.5 -62t25.5 -62t53.5 -23q25 0 44 13t35 33l32 39l-31 38q-16 20 -35.5 33.5
t-44.5 13.5z" />
    <glyph glyph-name="integral" unicode="&#x222b;" horiz-adv-x="444" 
d="M119 530q-15 71 19.5 120.5t125.5 49.5h140v-121h-164l85 -409q14 -71 -20 -120.5t-125 -49.5h-140v121h164z" />
    <glyph glyph-name="approxequal" unicode="&#x2248;" horiz-adv-x="542" 
d="M65 324v123l7 5.5t20 12t33 12t46 5.5q28 0 55 -6.5t53 -14.5t52.5 -14.5t54.5 -6.5q20 0 36.5 6t28.5 12.5t19 12.5l7 6v-125l-6 -5t-18.5 -11t-32 -11t-44.5 -5q-28 0 -55.5 6.5t-55 14.5t-54.5 14.5t-55 6.5q-20 0 -36.5 -6t-28.5 -13t-19 -13zM65 125v122l7 5.5
t20 12t33 12t46 5.5q28 0 55 -6.5t53 -14.5t52.5 -14.5t54.5 -6.5q20 0 36.5 6t28.5 13t19 13l7 6v-126l-6 -5t-18.5 -11t-32 -11t-44.5 -5q-28 0 -55.5 6.5t-55 14.5t-54.5 14.5t-55 6.5q-20 0 -36.5 -6t-28.5 -12.5t-19 -12.5z" />
    <glyph glyph-name="notequal" unicode="&#x2260;" horiz-adv-x="547" 
d="M65 343v123h219l30 75h114l-30 -75h84v-123h-417zM65 143v123h417v-123h-218l-31 -75h-114l31 75h-85z" />
    <glyph glyph-name="lessequal" unicode="&#x2264;" horiz-adv-x="440" 
d="M45 463l350 190v-138l-224 -117l224 -117v-138l-350 190v130zM45 0v123h350v-123h-350z" />
    <glyph glyph-name="greaterequal" unicode="&#x2265;" horiz-adv-x="440" 
d="M395 463v-130l-350 -190v138l224 117l-224 117v138zM395 0h-350v123h350v-123z" />
    <glyph glyph-name="BlackSquare" unicode="&#x25a0;" horiz-adv-x="651" 
d="M80 137v491h491v-491h-491z" />
    <glyph glyph-name="UpTriangle" unicode="&#x25b2;" horiz-adv-x="760" 
d="M40 80l340 540l340 -540h-680z" />
    <glyph glyph-name="RightTriangle" unicode="&#x25ba;" horiz-adv-x="660" 
d="M80 10v680l540 -340z" />
    <glyph glyph-name="DownTriangle" unicode="&#x25bc;" horiz-adv-x="760" 
d="M40 620h680l-340 -540z" />
    <glyph glyph-name="LeftTriangle" unicode="&#x25c0;" horiz-adv-x="660" 
d="M40 350l540 340v-680z" />
    <glyph glyph-name="Diamond" unicode="&#x25c6;" horiz-adv-x="718" 
d="M40 385l319 319l319 -319l-319 -319z" />
    <glyph glyph-name="lozenge" unicode="&#x25ca;" horiz-adv-x="677" 
d="M627 350l-210 -350h-152l-215 350l215 350h152zM341 104l146 246l-146 246l-151 -246z" />
    <glyph glyph-name="BlackCircle" unicode="&#x25cf;" horiz-adv-x="630" 
d="M315 75q-57 0 -107 21.5t-87.5 59t-59 87.5t-21.5 107q0 56 21.5 106.5t59 87.5t87.5 59t107 22q56 0 106.5 -22t87.5 -59t59 -87.5t22 -106.5q0 -57 -22 -107t-59 -87.5t-87.5 -59t-106.5 -21.5z" />
    <glyph glyph-name="HeavyBlackHeart" unicode="&#x2764;" horiz-adv-x="646" 
d="M461 626q25 0 52.5 -7.5t50.5 -25t37.5 -48t14.5 -75.5q0 -58 -36 -98t-84.5 -80.5t-97.5 -90.5t-75 -127h-1q-25 77 -74 127t-97.5 90.5t-84.5 80.5t-36 98q0 45 14.5 75.5t37 48t50 25t53.5 7.5q32 0 55 -10t38 -25t24 -33.5t13 -35.5h15q4 17 13 35.5t24.5 33.5
t38.5 25t55 10z" />
    <glyph glyph-name="commaaccent" unicode="&#xf6c3;" 
d="M192 -36h129l-63 -223h-107z" />
    <glyph glyph-name="i.TRK" horiz-adv-x="260" 
d="M51 642q0 34 23 56.5t56 22.5t56 -22.5t23 -56.5t-23 -56.5t-56 -22.5t-56 22.5t-23 56.5zM70 0v505h120v-505h-120z" />
    <glyph glyph-name="A.sc" horiz-adv-x="613" 
d="M472 0l-47 120h-237l-47 -120h-121l202 525h169l202 -525h-121zM231 234h151l-75 198z" />
    <glyph glyph-name="B.sc" horiz-adv-x="615" 
d="M85 0v525h297q35 0 66.5 -10.5t55 -30t37.5 -48t14 -63.5q0 -31 -11.5 -59.5t-37.5 -49.5q25 -21 37 -49.5t12 -61.5q0 -35 -14 -63.5t-37.5 -48.5t-55 -30.5t-66.5 -10.5h-297zM382 320q25 0 42 10t17 35t-17 35.5t-42 10.5h-184v-91h184zM384 114q26 0 41.5 11.5
t15.5 34.5q0 22 -16 34.5t-41 12.5h-186v-93h186z" />
    <glyph glyph-name="C.sc" horiz-adv-x="620" 
d="M464 325q-17 42 -53 69.5t-90 27.5q-69 0 -113 -45.5t-44 -114.5t44 -114.5t113 -45.5q54 0 90.5 28t53.5 71l105 -47q-30 -76 -96 -120.5t-153 -44.5q-59 0 -109 20.5t-86 56.5t-56 86.5t-20 109.5t20 109.5t56 87t86 57t109 20.5q87 0 152.5 -44t95.5 -119z" />
    <glyph glyph-name="D.sc" horiz-adv-x="627" 
d="M307 525q61 0 111 -19.5t85 -54t54.5 -83t19.5 -106.5q0 -57 -19.5 -105.5t-54.5 -83t-85 -54t-111 -19.5h-222v525h222zM198 421v-317h109q68 0 112 40.5t44 117.5q0 78 -44 118.5t-112 40.5h-109z" />
    <glyph glyph-name="E.sc" horiz-adv-x="601" 
d="M522 411h-324v-91h320v-113h-320v-93h328v-114h-441v525h437v-114z" />
    <glyph glyph-name="F.sc" horiz-adv-x="546" 
d="M496 411h-298v-101h290v-113h-290v-197h-113v525h411v-114z" />
    <glyph glyph-name="G.sc" horiz-adv-x="634" 
d="M321 102q56 0 83.5 21.5t43.5 49.5h-127v111h241v-284h-96v42q-31 -29 -67.5 -41t-77.5 -12q-59 0 -109 20.5t-86 56.5t-56 86.5t-20 109.5t20 109.5t56 87t86 57t109 20.5q87 0 152.5 -44t95.5 -119l-105 -48q-17 42 -53 69.5t-90 27.5q-69 0 -113 -45.5t-44 -114.5
t44 -114.5t113 -45.5z" />
    <glyph glyph-name="H.sc" horiz-adv-x="662" 
d="M463 0v207h-265v-207h-113v525h113v-204h265v204h114v-525h-114z" />
    <glyph glyph-name="I.sc" horiz-adv-x="283" 
d="M85 0v525h113v-525h-113z" />
    <glyph glyph-name="J.sc" horiz-adv-x="553" 
d="M483 525v-304q0 -51 -14.5 -93.5t-42 -73.5t-68.5 -48t-92 -17q-67 0 -109.5 24.5t-66 53.5t-32 53.5l-8.5 24.5l106 51l4 -14.5t15.5 -32.5t33 -32.5t56.5 -14.5q51 0 77.5 31t26.5 88v304h114z" />
    <glyph glyph-name="K.sc" horiz-adv-x="640" 
d="M457 0l-154 250l-105 -109v-141h-113v525h113v-230l224 230h155l-191 -190l214 -335h-143z" />
    <glyph glyph-name="L.sc" horiz-adv-x="546" 
d="M198 114h298v-114h-411v525h113v-411z" />
    <glyph glyph-name="M.sc" horiz-adv-x="800" 
d="M601 0v408l-119 -408h-165l-119 408v-408h-113v525h189l125 -430l127 430h189v-525h-114z" />
    <glyph glyph-name="N.sc" horiz-adv-x="675" 
d="M425 0l-227 392v-392h-113v525h164l227 -398v398h114v-525h-165z" />
    <glyph glyph-name="O.sc" horiz-adv-x="641" 
d="M50 262q0 59 20 109.5t56 87t86 57t109 20.5t109 -20.5t85.5 -57t55.5 -87t20 -109.5t-20 -109.5t-55.5 -86.5t-85.5 -56.5t-109 -20.5t-109 20.5t-86 56.5t-56 86.5t-20 109.5zM477 262q0 69 -44 114.5t-112 45.5q-69 0 -113 -45.5t-44 -114.5t44 -114.5t113 -45.5
q68 0 112 45.5t44 114.5z" />
    <glyph glyph-name="P.sc" horiz-adv-x="605" 
d="M198 168v-168h-113v525h269q41 0 77.5 -12.5t64 -35t43.5 -55.5t16 -74t-16 -74.5t-43.5 -57t-65 -36t-78.5 -12.5h-154zM198 411v-130h156q43 0 65 16.5t22 48.5t-22 48.5t-65 16.5h-156z" />
    <glyph glyph-name="Q.sc" horiz-adv-x="646" 
d="M50 262q0 59 20 109.5t56 87t86 57t109 20.5t109 -20.5t85.5 -57t55.5 -87t20 -109.5q0 -54 -16.5 -100.5t-47.5 -82.5l53 -49l-81 -83l-65 64q-25 -10 -53.5 -16t-59.5 -6q-59 0 -109 20.5t-86 56.5t-56 86.5t-20 109.5zM477 262q0 69 -44 114.5t-112 45.5
q-69 0 -113 -45.5t-44 -114.5t44 -114.5t113 -45.5q68 0 112 45.5t44 114.5z" />
    <glyph glyph-name="R.sc" horiz-adv-x="620" 
d="M439 0l-99 183h-142v-183h-113v525h284q43 0 77.5 -13.5t58.5 -36.5t37 -54t13 -65q0 -50 -27 -93t-71 -63l113 -200h-131zM370 411h-172v-115h172q34 0 52.5 16t18.5 41q0 26 -18.5 42t-52.5 16z" />
    <glyph glyph-name="S.sc" horiz-adv-x="583" 
d="M292 -11q-72 0 -120.5 18.5t-77.5 40.5t-41.5 40.5l-12.5 18.5l96 68l9 -12t28.5 -26.5t51.5 -26.5t77 -12q54 0 83.5 13.5t29.5 40.5q0 28 -23 38.5t-57 12.5l-90 7q-81 6 -133.5 46t-52.5 115t62 120t158 45q64 0 109 -18t73 -40t40.5 -40l12.5 -18l-96 -67l-6.5 11.5
t-22.5 25t-44 25t-71 11.5q-50 0 -75 -15.5t-25 -39.5q0 -21 17.5 -31t53.5 -13l90 -7q87 -7 142.5 -45.5t55.5 -116.5q0 -81 -67 -125t-174 -44z" />
    <glyph glyph-name="T.sc" horiz-adv-x="498" 
d="M468 411h-163v-411h-113v411h-162v114h438v-114z" />
    <glyph glyph-name="U.sc" horiz-adv-x="606" 
d="M536 525v-294q0 -113 -65.5 -177.5t-167.5 -64.5t-167.5 64.5t-65.5 177.5v294h114v-294q0 -64 34 -96.5t85 -32.5q50 0 84.5 32.5t34.5 96.5v294h114z" />
    <glyph glyph-name="V.sc" horiz-adv-x="564" 
d="M143 525l139 -417l138 417h124l-180 -525h-164l-180 525h123z" />
    <glyph glyph-name="W.sc" horiz-adv-x="785" 
d="M141 525l79 -396l90 396h165l89 -394l80 394h121l-108 -525h-180l-84 393l-85 -393h-180l-108 525h121z" />
    <glyph glyph-name="X.sc" horiz-adv-x="598" 
d="M299 345l115 180h137l-179 -259l186 -266h-136l-123 187l-123 -187h-136l186 266l-179 259h137z" />
    <glyph glyph-name="Y.sc" horiz-adv-x="541" 
d="M327 0h-114v171l-188 354h121l124 -249l125 249h121l-189 -354v-171z" />
    <glyph glyph-name="Z.sc" horiz-adv-x="524" 
d="M54 525h405v-114l-260 -297h275v-114h-424v114l259 297h-255v114z" />
    <glyph glyph-name="Agrave.sc" horiz-adv-x="613" 
d="M472 0l-47 120h-237l-47 -120h-121l202 525h169l202 -525h-121zM231 234h151l-75 198zM218 741l234 -96l-32 -86l-241 73z" />
    <glyph glyph-name="Aacute.sc" horiz-adv-x="613" 
d="M472 0l-47 120h-237l-47 -120h-121l202 525h169l202 -525h-121zM231 234h151l-75 198zM413 741l39 -109l-241 -73l-32 86z" />
    <glyph glyph-name="Acircumflex.sc" horiz-adv-x="613" 
d="M472 0l-47 120h-237l-47 -120h-121l202 525h169l202 -525h-121zM231 234h151l-75 198zM483 634l-46 -78l-130 68l-130 -68l-46 78l176 105z" />
    <glyph glyph-name="Atilde.sc" horiz-adv-x="613" 
d="M472 0l-47 120h-237l-47 -120h-121l202 525h169l202 -525h-121zM231 234h151l-75 198zM364 569q-19 0 -34.5 5.5t-30 12t-29 12t-30.5 5.5q-19 0 -33 -11.5t-24 -23.5l-45 81q6 7 16.5 17t24 19.5t30 16t34.5 6.5q19 0 34.5 -5.5t30 -12t28.5 -12t30 -5.5q20 0 34.5 12
t24.5 23l45 -81q-6 -7 -16.5 -17t-24.5 -19.5t-30.5 -16t-34.5 -6.5z" />
    <glyph glyph-name="Adieresis.sc" horiz-adv-x="613" 
d="M472 0l-47 120h-237l-47 -120h-121l202 525h169l202 -525h-121zM231 234h151l-75 198zM137 672q0 31 20.5 51t50.5 20t50.5 -20t20.5 -51q0 -30 -20.5 -50.5t-50.5 -20.5t-50.5 20.5t-20.5 50.5zM335 672q0 31 20.5 51t50.5 20t50.5 -20t20.5 -51q0 -30 -20.5 -50.5
t-50.5 -20.5t-50.5 20.5t-20.5 50.5z" />
    <glyph glyph-name="Amacron.sc" horiz-adv-x="613" 
d="M472 0l-47 120h-237l-47 -120h-121l202 525h169l202 -525h-121zM231 234h151l-75 198zM166 583v100h282v-100h-282z" />
    <glyph glyph-name="Abreve.sc" horiz-adv-x="613" 
d="M472 0l-47 120h-237l-47 -120h-121l202 525h169l202 -525h-121zM231 234h151l-75 198zM307 651q25 0 37 12t14 29l87 -16q-7 -46 -39 -79.5t-99 -33.5t-99 33.5t-39 79.5l87 16q2 -17 14 -29t37 -12z" />
    <glyph glyph-name="Aring.sc" horiz-adv-x="613" 
d="M472 0l-47 120h-237l-47 -120h-121l199 517q-14 16 -22 36t-8 43q0 49 34 83t83 34t83.5 -34t34.5 -83q0 -23 -8 -43t-22 -36l199 -517h-121zM265 595q0 -17 12 -29t29 -12t29 12t12 29t-12 29t-29 12t-29 -12t-12 -29zM231 234h151l-75 198z" />
    <glyph glyph-name="Aringacute.sc" horiz-adv-x="613" 
d="M472 0l-47 120h-237l-47 -120h-121l199 517q-14 16 -22 36t-8 43q0 49 34 83t83 34t83.5 -34t34.5 -83q0 -23 -8 -43t-22 -36l199 -517h-121zM265 595q0 -17 12 -29t29 -12t29 12t12 29t-12 29t-29 12t-29 -12t-12 -29zM231 234h151l-75 198zM418 884l26 -112l-254 -49
l-22 92z" />
    <glyph glyph-name="Aogonek.sc" horiz-adv-x="613" 
d="M472 0l-47 120h-237l-47 -120h-121l202 525h169l202 -525h-121zM231 234h151l-75 198zM547 -193q-4 -1 -13 -1.5t-17 -0.5q-54 0 -91.5 28t-37.5 74q0 36 25.5 65t84.5 36l49 -8q-34 -10 -51 -31.5t-17 -41.5q0 -19 13 -28.5t31 -9.5q6 0 12.5 1.5t11.5 3.5v-87z" />
    <glyph glyph-name="AE.sc" horiz-adv-x="862" 
d="M783 411h-277v-91h274v-113h-274v-93h281v-114h-394v120h-199l-53 -120h-121l232 525h531v-114zM241 234h152v177h-75z" />
    <glyph glyph-name="AEacute.sc" horiz-adv-x="862" 
d="M783 411h-277v-91h274v-113h-274v-93h281v-114h-394v120h-199l-53 -120h-121l232 525h531v-114zM241 234h152v177h-75zM642 741l39 -109l-241 -73l-32 86z" />
    <glyph glyph-name="Cacute.sc" horiz-adv-x="620" 
d="M464 325q-17 42 -53 69.5t-90 27.5q-69 0 -113 -45.5t-44 -114.5t44 -114.5t113 -45.5q54 0 90.5 28t53.5 71l105 -47q-30 -76 -96 -120.5t-153 -44.5q-59 0 -109 20.5t-86 56.5t-56 86.5t-20 109.5t20 109.5t56 87t86 57t109 20.5q87 0 152.5 -44t95.5 -119zM427 741
l39 -109l-241 -73l-32 86z" />
    <glyph glyph-name="Ccircumflex.sc" horiz-adv-x="620" 
d="M464 325q-17 42 -53 69.5t-90 27.5q-69 0 -113 -45.5t-44 -114.5t44 -114.5t113 -45.5q54 0 90.5 28t53.5 71l105 -47q-30 -76 -96 -120.5t-153 -44.5q-59 0 -109 20.5t-86 56.5t-56 86.5t-20 109.5t20 109.5t56 87t86 57t109 20.5q87 0 152.5 -44t95.5 -119zM497 634
l-46 -78l-130 68l-130 -68l-46 78l176 105z" />
    <glyph glyph-name="Ccaron.sc" horiz-adv-x="620" 
d="M464 325q-17 42 -53 69.5t-90 27.5q-69 0 -113 -45.5t-44 -114.5t44 -114.5t113 -45.5q54 0 90.5 28t53.5 71l105 -47q-30 -76 -96 -120.5t-153 -44.5q-59 0 -109 20.5t-86 56.5t-56 86.5t-20 109.5t20 109.5t56 87t86 57t109 20.5q87 0 152.5 -44t95.5 -119zM497 664
l-176 -105l-176 105l46 78l130 -68l130 68z" />
    <glyph glyph-name="Cdotaccent.sc" horiz-adv-x="620" 
d="M464 325q-17 42 -53 69.5t-90 27.5q-69 0 -113 -45.5t-44 -114.5t44 -114.5t113 -45.5q54 0 90.5 28t53.5 71l105 -47q-30 -76 -96 -120.5t-153 -44.5q-59 0 -109 20.5t-86 56.5t-56 86.5t-20 109.5t20 109.5t56 87t86 57t109 20.5q87 0 152.5 -44t95.5 -119zM242 642
q0 34 23 56.5t56 22.5t56 -22.5t23 -56.5t-23 -56.5t-56 -22.5t-56 22.5t-23 56.5z" />
    <glyph glyph-name="Ccedilla.sc" horiz-adv-x="620" 
d="M464 325q-17 42 -53 69.5t-90 27.5q-69 0 -113 -45.5t-44 -114.5t44 -114.5t113 -45.5q54 0 90.5 28t53.5 71l105 -47q-30 -76 -96 -120.5t-153 -44.5q-59 0 -109 20.5t-86 56.5t-56 86.5t-20 109.5t20 109.5t56 87t86 57t109 20.5q87 0 152.5 -44t95.5 -119zM250 -87
q7 -13 23.5 -24t38.5 -11q17 0 27.5 5.5t10.5 17.5q0 9 -7 15t-17.5 10t-21.5 6t-20 3l20 78q27 -4 52 -12.5t44.5 -22.5t31 -34t11.5 -47q0 -46 -37.5 -74t-91.5 -28q-43 0 -80.5 21.5t-56.5 58.5z" />
    <glyph glyph-name="Eth.sc" horiz-adv-x="627" 
d="M20 216v104h65v205h222q61 0 111 -19.5t85 -54t54.5 -83t19.5 -106.5q0 -57 -19.5 -105.5t-54.5 -83t-85 -54t-111 -19.5h-222v216h-65zM198 421v-101h110v-104h-110v-112h109q68 0 112 40.5t44 117.5q0 78 -44 118.5t-112 40.5h-109z" />
    <glyph glyph-name="Dcaron.sc" horiz-adv-x="627" 
d="M307 525q61 0 111 -19.5t85 -54t54.5 -83t19.5 -106.5q0 -57 -19.5 -105.5t-54.5 -83t-85 -54t-111 -19.5h-222v525h222zM198 421v-317h109q68 0 112 40.5t44 117.5q0 78 -44 118.5t-112 40.5h-109zM487 664l-176 -105l-176 105l46 78l130 -68l130 68z" />
    <glyph glyph-name="Dcroat.sc" horiz-adv-x="627" 
d="M20 216v104h65v205h222q61 0 111 -19.5t85 -54t54.5 -83t19.5 -106.5q0 -57 -19.5 -105.5t-54.5 -83t-85 -54t-111 -19.5h-222v216h-65zM198 421v-101h110v-104h-110v-112h109q68 0 112 40.5t44 117.5q0 78 -44 118.5t-112 40.5h-109z" />
    <glyph glyph-name="Egrave.sc" horiz-adv-x="601" 
d="M522 411h-324v-91h320v-113h-320v-93h328v-114h-441v525h437v-114zM217 741l234 -96l-32 -86l-241 73z" />
    <glyph glyph-name="Eacute.sc" horiz-adv-x="601" 
d="M522 411h-324v-91h320v-113h-320v-93h328v-114h-441v525h437v-114zM412 741l39 -109l-241 -73l-32 86z" />
    <glyph glyph-name="Ecircumflex.sc" horiz-adv-x="601" 
d="M522 411h-324v-91h320v-113h-320v-93h328v-114h-441v525h437v-114zM482 634l-46 -78l-130 68l-130 -68l-46 78l176 105z" />
    <glyph glyph-name="Ecaron.sc" horiz-adv-x="601" 
d="M522 411h-324v-91h320v-113h-320v-93h328v-114h-441v525h437v-114zM482 664l-176 -105l-176 105l46 78l130 -68l130 68z" />
    <glyph glyph-name="Edieresis.sc" horiz-adv-x="601" 
d="M522 411h-324v-91h320v-113h-320v-93h328v-114h-441v525h437v-114zM136 672q0 31 20.5 51t50.5 20t50.5 -20t20.5 -51q0 -30 -20.5 -50.5t-50.5 -20.5t-50.5 20.5t-20.5 50.5zM334 672q0 31 20.5 51t50.5 20t50.5 -20t20.5 -51q0 -30 -20.5 -50.5t-50.5 -20.5t-50.5 20.5
t-20.5 50.5z" />
    <glyph glyph-name="Emacron.sc" horiz-adv-x="601" 
d="M522 411h-324v-91h320v-113h-320v-93h328v-114h-441v525h437v-114zM165 583v100h282v-100h-282z" />
    <glyph glyph-name="Ebreve.sc" horiz-adv-x="601" 
d="M522 411h-324v-91h320v-113h-320v-93h328v-114h-441v525h437v-114zM306 651q25 0 37 12t14 29l87 -16q-7 -46 -39 -79.5t-99 -33.5t-99 33.5t-39 79.5l87 16q2 -17 14 -29t37 -12z" />
    <glyph glyph-name="Edotaccent.sc" horiz-adv-x="601" 
d="M522 411h-324v-91h320v-113h-320v-93h328v-114h-441v525h437v-114zM227 642q0 34 23 56.5t56 22.5t56 -22.5t23 -56.5t-23 -56.5t-56 -22.5t-56 22.5t-23 56.5z" />
    <glyph glyph-name="Eogonek.sc" horiz-adv-x="601" 
d="M522 411h-324v-91h320v-113h-320v-93h328v-114h-441v525h437v-114zM526 -193q-4 -1 -13 -1.5t-17 -0.5q-54 0 -91.5 28t-37.5 74q0 36 25.5 65t84.5 36l49 -8q-34 -10 -51 -31.5t-17 -41.5q0 -19 13 -28.5t31 -9.5q6 0 12.5 1.5t11.5 3.5v-87z" />
    <glyph glyph-name="Gcircumflex.sc" horiz-adv-x="634" 
d="M321 102q56 0 83.5 21.5t43.5 49.5h-127v111h241v-284h-96v42q-31 -29 -67.5 -41t-77.5 -12q-59 0 -109 20.5t-86 56.5t-56 86.5t-20 109.5t20 109.5t56 87t86 57t109 20.5q87 0 152.5 -44t95.5 -119l-105 -48q-17 42 -53 69.5t-90 27.5q-69 0 -113 -45.5t-44 -114.5
t44 -114.5t113 -45.5zM498 634l-46 -78l-130 68l-130 -68l-46 78l176 105z" />
    <glyph glyph-name="Gbreve.sc" horiz-adv-x="634" 
d="M321 102q56 0 83.5 21.5t43.5 49.5h-127v111h241v-284h-96v42q-31 -29 -67.5 -41t-77.5 -12q-59 0 -109 20.5t-86 56.5t-56 86.5t-20 109.5t20 109.5t56 87t86 57t109 20.5q87 0 152.5 -44t95.5 -119l-105 -48q-17 42 -53 69.5t-90 27.5q-69 0 -113 -45.5t-44 -114.5
t44 -114.5t113 -45.5zM322 651q25 0 37 12t14 29l87 -16q-7 -46 -39 -79.5t-99 -33.5t-99 33.5t-39 79.5l87 16q2 -17 14 -29t37 -12z" />
    <glyph glyph-name="Gdotaccent.sc" horiz-adv-x="634" 
d="M321 102q56 0 83.5 21.5t43.5 49.5h-127v111h241v-284h-96v42q-31 -29 -67.5 -41t-77.5 -12q-59 0 -109 20.5t-86 56.5t-56 86.5t-20 109.5t20 109.5t56 87t86 57t109 20.5q87 0 152.5 -44t95.5 -119l-105 -48q-17 42 -53 69.5t-90 27.5q-69 0 -113 -45.5t-44 -114.5
t44 -114.5t113 -45.5zM243 642q0 34 23 56.5t56 22.5t56 -22.5t23 -56.5t-23 -56.5t-56 -22.5t-56 22.5t-23 56.5z" />
    <glyph glyph-name="Gcommaaccent.sc" horiz-adv-x="634" 
d="M321 102q56 0 83.5 21.5t43.5 49.5h-127v111h241v-284h-96v42q-31 -29 -67.5 -41t-77.5 -12q-59 0 -109 20.5t-86 56.5t-56 86.5t-20 109.5t20 109.5t56 87t86 57t109 20.5q87 0 152.5 -44t95.5 -119l-105 -48q-17 42 -53 69.5t-90 27.5q-69 0 -113 -45.5t-44 -114.5
t44 -114.5t113 -45.5zM257 -36h129l-63 -223h-107z" />
    <glyph glyph-name="Hcircumflex.sc" horiz-adv-x="662" 
d="M463 0v207h-265v-207h-113v525h113v-204h265v204h114v-525h-114zM507 634l-46 -78l-130 68l-130 -68l-46 78l176 105z" />
    <glyph glyph-name="Hbar.sc" horiz-adv-x="662" 
d="M20 369v104h65v52h113v-52h265v52h114v-52h65v-104h-65v-369h-114v207h-265v-207h-113v369h-65zM198 321h265v48h-265v-48z" />
    <glyph glyph-name="Igrave.sc" horiz-adv-x="283" 
d="M85 0v525h113v-525h-113zM53 741l234 -96l-32 -86l-241 73z" />
    <glyph glyph-name="Iacute.sc" horiz-adv-x="283" 
d="M85 0v525h113v-525h-113zM248 741l39 -109l-241 -73l-32 86z" />
    <glyph glyph-name="Icircumflex.sc" horiz-adv-x="283" 
d="M85 0v525h113v-525h-113zM318 634l-46 -78l-130 68l-130 -68l-46 78l176 105z" />
    <glyph glyph-name="Itilde.sc" horiz-adv-x="283" 
d="M85 0v525h113v-525h-113zM199 569q-19 0 -34.5 5.5t-30 12t-29 12t-30.5 5.5q-19 0 -33 -11.5t-24 -23.5l-45 81q6 7 16.5 17t24 19.5t30 16t34.5 6.5q19 0 34.5 -5.5t30 -12t28.5 -12t30 -5.5q20 0 34.5 12t24.5 23l45 -81q-6 -7 -16.5 -17t-24.5 -19.5t-30.5 -16
t-34.5 -6.5z" />
    <glyph glyph-name="Idieresis.sc" horiz-adv-x="283" 
d="M85 0v525h113v-525h-113zM-28 672q0 31 20.5 51t50.5 20t50.5 -20t20.5 -51q0 -30 -20.5 -50.5t-50.5 -20.5t-50.5 20.5t-20.5 50.5zM170 672q0 31 20.5 51t50.5 20t50.5 -20t20.5 -51q0 -30 -20.5 -50.5t-50.5 -20.5t-50.5 20.5t-20.5 50.5z" />
    <glyph glyph-name="Imacron.sc" horiz-adv-x="283" 
d="M85 0v525h113v-525h-113zM1 583v100h282v-100h-282z" />
    <glyph glyph-name="Ibreve.sc" horiz-adv-x="283" 
d="M85 0v525h113v-525h-113zM142 651q25 0 37 12t14 29l87 -16q-7 -46 -39 -79.5t-99 -33.5t-99 33.5t-39 79.5l87 16q2 -17 14 -29t37 -12z" />
    <glyph glyph-name="Idotaccent.sc" horiz-adv-x="283" 
d="M85 0v525h113v-525h-113zM63 642q0 34 23 56.5t56 22.5t56 -22.5t23 -56.5t-23 -56.5t-56 -22.5t-56 22.5t-23 56.5z" />
    <glyph glyph-name="Iogonek.sc" horiz-adv-x="283" 
d="M85 0v525h113v-525h-113zM172 -193q-4 -1 -13 -1.5t-17 -0.5q-54 0 -91.5 28t-37.5 74q0 36 25.5 65t84.5 36l49 -8q-34 -10 -51 -31.5t-17 -41.5q0 -19 13 -28.5t31 -9.5q6 0 12.5 1.5t11.5 3.5v-87z" />
    <glyph glyph-name="IJ.sc" horiz-adv-x="836" 
d="M85 0v525h113v-525h-113zM766 525v-304q0 -51 -14.5 -93.5t-42 -73.5t-68.5 -48t-92 -17q-67 0 -109.5 24.5t-66 53.5t-32 53.5l-8.5 24.5l106 51l4 -14.5t15.5 -32.5t33 -32.5t56.5 -14.5q51 0 77.5 31t26.5 88v304h114z" />
    <glyph glyph-name="Jcircumflex.sc" horiz-adv-x="553" 
d="M483 525v-304q0 -51 -14.5 -93.5t-42 -73.5t-68.5 -48t-92 -17q-67 0 -109.5 24.5t-66 53.5t-32 53.5l-8.5 24.5l106 51l4 -14.5t15.5 -32.5t33 -32.5t56.5 -14.5q51 0 77.5 31t26.5 88v304h114zM606 634l-46 -78l-130 68l-130 -68l-46 78l176 105z" />
    <glyph glyph-name="Kcommaaccent.sc" horiz-adv-x="640" 
d="M457 0l-154 250l-105 -109v-141h-113v525h113v-230l224 230h155l-191 -190l214 -335h-143zM264 -36h129l-63 -223h-107z" />
    <glyph glyph-name="Lacute.sc" horiz-adv-x="546" 
d="M198 114h298v-114h-411v525h113v-411zM255 741l39 -109l-241 -73l-32 86z" />
    <glyph glyph-name="Lcaron.sc" horiz-adv-x="546" 
d="M198 114h298v-114h-411v525h113v-411zM331 525h118l-34 -208h-99z" />
    <glyph glyph-name="Lcommaaccent.sc" horiz-adv-x="546" 
d="M198 114h298v-114h-411v525h113v-411zM238 -36h129l-63 -223h-107z" />
    <glyph glyph-name="Lslash.sc" horiz-adv-x="546" 
d="M198 114h298v-114h-411v215l-50 -16v97l50 16v213h113v-175l62 21v-97l-62 -21v-139z" />
    <glyph glyph-name="Ldot.sc" horiz-adv-x="546" 
d="M198 114h298v-114h-411v525h113v-411zM332 313q0 34 23 56.5t56 22.5t56 -22.5t23 -56.5t-23 -56.5t-56 -22.5t-56 22.5t-23 56.5z" />
    <glyph glyph-name="Nacute.sc" horiz-adv-x="675" 
d="M425 0l-227 392v-392h-113v525h164l227 -398v398h114v-525h-165zM444 741l39 -109l-241 -73l-32 86z" />
    <glyph glyph-name="Ncaron.sc" horiz-adv-x="675" 
d="M425 0l-227 392v-392h-113v525h164l227 -398v398h114v-525h-165zM514 664l-176 -105l-176 105l46 78l130 -68l130 68z" />
    <glyph glyph-name="Ntilde.sc" horiz-adv-x="675" 
d="M425 0l-227 392v-392h-113v525h164l227 -398v398h114v-525h-165zM395 569q-19 0 -34.5 5.5t-30 12t-29 12t-30.5 5.5q-19 0 -33 -11.5t-24 -23.5l-45 81q6 7 16.5 17t24 19.5t30 16t34.5 6.5q19 0 34.5 -5.5t30 -12t28.5 -12t30 -5.5q20 0 34.5 12t24.5 23l45 -81
q-6 -7 -16.5 -17t-24.5 -19.5t-30.5 -16t-34.5 -6.5z" />
    <glyph glyph-name="Ncommaaccent.sc" horiz-adv-x="675" 
d="M425 0l-227 392v-392h-113v525h164l227 -398v398h114v-525h-165zM285 -36h129l-63 -223h-107z" />
    <glyph glyph-name="Eng.sc" horiz-adv-x="675" 
d="M425 0l-227 392v-392h-113v525h164l227 -398v398h114v-540q0 -90 -39.5 -132.5t-128.5 -42.5h-45v114h52q24 0 35.5 11.5t11.5 39.5v25h-51z" />
    <glyph glyph-name="Ograve.sc" horiz-adv-x="641" 
d="M50 262q0 59 20 109.5t56 87t86 57t109 20.5t109 -20.5t85.5 -57t55.5 -87t20 -109.5t-20 -109.5t-55.5 -86.5t-85.5 -56.5t-109 -20.5t-109 20.5t-86 56.5t-56 86.5t-20 109.5zM477 262q0 69 -44 114.5t-112 45.5q-69 0 -113 -45.5t-44 -114.5t44 -114.5t113 -45.5
q68 0 112 45.5t44 114.5zM232 741l234 -96l-32 -86l-241 73z" />
    <glyph glyph-name="Oacute.sc" horiz-adv-x="641" 
d="M50 262q0 59 20 109.5t56 87t86 57t109 20.5t109 -20.5t85.5 -57t55.5 -87t20 -109.5t-20 -109.5t-55.5 -86.5t-85.5 -56.5t-109 -20.5t-109 20.5t-86 56.5t-56 86.5t-20 109.5zM477 262q0 69 -44 114.5t-112 45.5q-69 0 -113 -45.5t-44 -114.5t44 -114.5t113 -45.5
q68 0 112 45.5t44 114.5zM427 741l39 -109l-241 -73l-32 86z" />
    <glyph glyph-name="Ocircumflex.sc" horiz-adv-x="641" 
d="M50 262q0 59 20 109.5t56 87t86 57t109 20.5t109 -20.5t85.5 -57t55.5 -87t20 -109.5t-20 -109.5t-55.5 -86.5t-85.5 -56.5t-109 -20.5t-109 20.5t-86 56.5t-56 86.5t-20 109.5zM477 262q0 69 -44 114.5t-112 45.5q-69 0 -113 -45.5t-44 -114.5t44 -114.5t113 -45.5
q68 0 112 45.5t44 114.5zM497 634l-46 -78l-130 68l-130 -68l-46 78l176 105z" />
    <glyph glyph-name="Otilde.sc" horiz-adv-x="641" 
d="M50 262q0 59 20 109.5t56 87t86 57t109 20.5t109 -20.5t85.5 -57t55.5 -87t20 -109.5t-20 -109.5t-55.5 -86.5t-85.5 -56.5t-109 -20.5t-109 20.5t-86 56.5t-56 86.5t-20 109.5zM477 262q0 69 -44 114.5t-112 45.5q-69 0 -113 -45.5t-44 -114.5t44 -114.5t113 -45.5
q68 0 112 45.5t44 114.5zM378 569q-19 0 -34.5 5.5t-30 12t-29 12t-30.5 5.5q-19 0 -33 -11.5t-24 -23.5l-45 81q6 7 16.5 17t24 19.5t30 16t34.5 6.5q19 0 34.5 -5.5t30 -12t28.5 -12t30 -5.5q20 0 34.5 12t24.5 23l45 -81q-6 -7 -16.5 -17t-24.5 -19.5t-30.5 -16
t-34.5 -6.5z" />
    <glyph glyph-name="Odieresis.sc" horiz-adv-x="641" 
d="M50 262q0 59 20 109.5t56 87t86 57t109 20.5t109 -20.5t85.5 -57t55.5 -87t20 -109.5t-20 -109.5t-55.5 -86.5t-85.5 -56.5t-109 -20.5t-109 20.5t-86 56.5t-56 86.5t-20 109.5zM477 262q0 69 -44 114.5t-112 45.5q-69 0 -113 -45.5t-44 -114.5t44 -114.5t113 -45.5
q68 0 112 45.5t44 114.5zM151 672q0 31 20.5 51t50.5 20t50.5 -20t20.5 -51q0 -30 -20.5 -50.5t-50.5 -20.5t-50.5 20.5t-20.5 50.5zM349 672q0 31 20.5 51t50.5 20t50.5 -20t20.5 -51q0 -30 -20.5 -50.5t-50.5 -20.5t-50.5 20.5t-20.5 50.5z" />
    <glyph glyph-name="Omacron.sc" horiz-adv-x="641" 
d="M50 262q0 59 20 109.5t56 87t86 57t109 20.5t109 -20.5t85.5 -57t55.5 -87t20 -109.5t-20 -109.5t-55.5 -86.5t-85.5 -56.5t-109 -20.5t-109 20.5t-86 56.5t-56 86.5t-20 109.5zM477 262q0 69 -44 114.5t-112 45.5q-69 0 -113 -45.5t-44 -114.5t44 -114.5t113 -45.5
q68 0 112 45.5t44 114.5zM180 583v100h282v-100h-282z" />
    <glyph glyph-name="Obreve.sc" horiz-adv-x="641" 
d="M50 262q0 59 20 109.5t56 87t86 57t109 20.5t109 -20.5t85.5 -57t55.5 -87t20 -109.5t-20 -109.5t-55.5 -86.5t-85.5 -56.5t-109 -20.5t-109 20.5t-86 56.5t-56 86.5t-20 109.5zM477 262q0 69 -44 114.5t-112 45.5q-69 0 -113 -45.5t-44 -114.5t44 -114.5t113 -45.5
q68 0 112 45.5t44 114.5zM321 651q25 0 37 12t14 29l87 -16q-7 -46 -39 -79.5t-99 -33.5t-99 33.5t-39 79.5l87 16q2 -17 14 -29t37 -12z" />
    <glyph glyph-name="Ohungarumlaut.sc" horiz-adv-x="641" 
d="M50 262q0 59 20 109.5t56 87t86 57t109 20.5t109 -20.5t85.5 -57t55.5 -87t20 -109.5t-20 -109.5t-55.5 -86.5t-85.5 -56.5t-109 -20.5t-109 20.5t-86 56.5t-56 86.5t-20 109.5zM477 262q0 69 -44 114.5t-112 45.5q-69 0 -113 -45.5t-44 -114.5t44 -114.5t113 -45.5
q68 0 112 45.5t44 114.5zM279 768l83 -73l-129 -136l-71 61zM465 768l83 -73l-129 -136l-71 61z" />
    <glyph glyph-name="Oslash.sc" horiz-adv-x="641" 
d="M50 262q0 59 20 109.5t56 87t86 57t109 20.5q39 0 74 -9.5t65 -26.5l41 49l74 -63l-41 -49q27 -34 42 -79t15 -96q0 -59 -20 -109.5t-55.5 -86.5t-85.5 -56.5t-109 -20.5q-38 0 -73 8.5t-64 24.5l-44 -53l-74 62l44 52q-29 35 -44.5 81t-15.5 98zM321 422
q-69 0 -113 -45.5t-44 -114.5q0 -25 6 -47t17 -40l197 235q-14 5 -30.5 8.5t-32.5 3.5zM477 262q0 23 -5.5 44t-15.5 39l-195 -232q13 -5 28.5 -8t31.5 -3q68 0 112 45.5t44 114.5z" />
    <glyph glyph-name="Oslashacute.sc" horiz-adv-x="641" 
d="M50 262q0 59 20 109.5t56 87t86 57t109 20.5q39 0 74 -9.5t65 -26.5l41 49l74 -63l-41 -49q27 -34 42 -79t15 -96q0 -59 -20 -109.5t-55.5 -86.5t-85.5 -56.5t-109 -20.5q-38 0 -73 8.5t-64 24.5l-44 -53l-74 62l44 52q-29 35 -44.5 81t-15.5 98zM321 422
q-69 0 -113 -45.5t-44 -114.5q0 -25 6 -47t17 -40l197 235q-14 5 -30.5 8.5t-32.5 3.5zM477 262q0 23 -5.5 44t-15.5 39l-195 -232q13 -5 28.5 -8t31.5 -3q68 0 112 45.5t44 114.5zM427 741l39 -109l-241 -73l-32 86z" />
    <glyph glyph-name="OE.sc" horiz-adv-x="953" 
d="M874 411h-284v-91h280v-113h-280v-93h288v-114h-401v44q-28 -25 -68 -40t-84 -15q-59 0 -110 20.5t-87.5 56.5t-57 86.5t-20.5 109.5t20.5 109.5t57 87t87.5 57t110 20.5q45 0 86 -17t66 -39v45h397v-114zM477 262q-2 72 -46 116t-110 44q-69 0 -113 -45.5t-44 -114.5
t44 -114.5t113 -45.5q68 0 112 45.5t44 114.5z" />
    <glyph glyph-name="Racute.sc" horiz-adv-x="620" 
d="M439 0l-99 183h-142v-183h-113v525h284q43 0 77.5 -13.5t58.5 -36.5t37 -54t13 -65q0 -50 -27 -93t-71 -63l113 -200h-131zM370 411h-172v-115h172q34 0 52.5 16t18.5 41q0 26 -18.5 42t-52.5 16zM434 741l39 -109l-241 -73l-32 86z" />
    <glyph glyph-name="Rcaron.sc" horiz-adv-x="620" 
d="M439 0l-99 183h-142v-183h-113v525h284q43 0 77.5 -13.5t58.5 -36.5t37 -54t13 -65q0 -50 -27 -93t-71 -63l113 -200h-131zM370 411h-172v-115h172q34 0 52.5 16t18.5 41q0 26 -18.5 42t-52.5 16zM504 664l-176 -105l-176 105l46 78l130 -68l130 68z" />
    <glyph glyph-name="Rcommaaccent.sc" horiz-adv-x="620" 
d="M439 0l-99 183h-142v-183h-113v525h284q43 0 77.5 -13.5t58.5 -36.5t37 -54t13 -65q0 -50 -27 -93t-71 -63l113 -200h-131zM370 411h-172v-115h172q34 0 52.5 16t18.5 41q0 26 -18.5 42t-52.5 16zM270 -36h129l-63 -223h-107z" />
    <glyph glyph-name="Sacute.sc" horiz-adv-x="583" 
d="M292 -11q-72 0 -120.5 18.5t-77.5 40.5t-41.5 40.5l-12.5 18.5l96 68l9 -12t28.5 -26.5t51.5 -26.5t77 -12q54 0 83.5 13.5t29.5 40.5q0 28 -23 38.5t-57 12.5l-90 7q-81 6 -133.5 46t-52.5 115t62 120t158 45q64 0 109 -18t73 -40t40.5 -40l12.5 -18l-96 -67l-6.5 11.5
t-22.5 25t-44 25t-71 11.5q-50 0 -75 -15.5t-25 -39.5q0 -21 17.5 -31t53.5 -13l90 -7q87 -7 142.5 -45.5t55.5 -116.5q0 -81 -67 -125t-174 -44zM395 741l39 -109l-241 -73l-32 86z" />
    <glyph glyph-name="Scircumflex.sc" horiz-adv-x="583" 
d="M292 -11q-72 0 -120.5 18.5t-77.5 40.5t-41.5 40.5l-12.5 18.5l96 68l9 -12t28.5 -26.5t51.5 -26.5t77 -12q54 0 83.5 13.5t29.5 40.5q0 28 -23 38.5t-57 12.5l-90 7q-81 6 -133.5 46t-52.5 115t62 120t158 45q64 0 109 -18t73 -40t40.5 -40l12.5 -18l-96 -67l-6.5 11.5
t-22.5 25t-44 25t-71 11.5q-50 0 -75 -15.5t-25 -39.5q0 -21 17.5 -31t53.5 -13l90 -7q87 -7 142.5 -45.5t55.5 -116.5q0 -81 -67 -125t-174 -44zM465 634l-46 -78l-130 68l-130 -68l-46 78l176 105z" />
    <glyph glyph-name="Scaron.sc" horiz-adv-x="583" 
d="M292 -11q-72 0 -120.5 18.5t-77.5 40.5t-41.5 40.5l-12.5 18.5l96 68l9 -12t28.5 -26.5t51.5 -26.5t77 -12q54 0 83.5 13.5t29.5 40.5q0 28 -23 38.5t-57 12.5l-90 7q-81 6 -133.5 46t-52.5 115t62 120t158 45q64 0 109 -18t73 -40t40.5 -40l12.5 -18l-96 -67l-6.5 11.5
t-22.5 25t-44 25t-71 11.5q-50 0 -75 -15.5t-25 -39.5q0 -21 17.5 -31t53.5 -13l90 -7q87 -7 142.5 -45.5t55.5 -116.5q0 -81 -67 -125t-174 -44zM465 664l-176 -105l-176 105l46 78l130 -68l130 68z" />
    <glyph glyph-name="Scedilla.sc" horiz-adv-x="583" 
d="M292 -11q-72 0 -120.5 18.5t-77.5 40.5t-41.5 40.5l-12.5 18.5l96 68l9 -12t28.5 -26.5t51.5 -26.5t77 -12q54 0 83.5 13.5t29.5 40.5q0 28 -23 38.5t-57 12.5l-90 7q-81 6 -133.5 46t-52.5 115t62 120t158 45q64 0 109 -18t73 -40t40.5 -40l12.5 -18l-96 -67l-6.5 11.5
t-22.5 25t-44 25t-71 11.5q-50 0 -75 -15.5t-25 -39.5q0 -21 17.5 -31t53.5 -13l90 -7q87 -7 142.5 -45.5t55.5 -116.5q0 -81 -67 -125t-174 -44zM227 -87q7 -13 23.5 -24t38.5 -11q17 0 27.5 5.5t10.5 17.5q0 9 -7 15t-17.5 10t-21.5 6t-20 3l20 78q27 -4 52 -12.5
t44.5 -22.5t31 -34t11.5 -47q0 -46 -37.5 -74t-91.5 -28q-43 0 -80.5 21.5t-56.5 58.5z" />
    <glyph glyph-name="Scommaaccent.sc" horiz-adv-x="583" 
d="M292 -11q-72 0 -120.5 18.5t-77.5 40.5t-41.5 40.5l-12.5 18.5l96 68l9 -12t28.5 -26.5t51.5 -26.5t77 -12q54 0 83.5 13.5t29.5 40.5q0 28 -23 38.5t-57 12.5l-90 7q-81 6 -133.5 46t-52.5 115t62 120t158 45q64 0 109 -18t73 -40t40.5 -40l12.5 -18l-96 -67l-6.5 11.5
t-22.5 25t-44 25t-71 11.5q-50 0 -75 -15.5t-25 -39.5q0 -21 17.5 -31t53.5 -13l90 -7q87 -7 142.5 -45.5t55.5 -116.5q0 -81 -67 -125t-174 -44zM234 -36h129l-63 -223h-107z" />
    <glyph glyph-name="Tcaron.sc" horiz-adv-x="498" 
d="M468 411h-163v-411h-113v411h-162v114h438v-114zM425 664l-176 -105l-176 105l46 78l130 -68l130 68z" />
    <glyph glyph-name="Tcommaaccent.sc" horiz-adv-x="498" 
d="M468 411h-163v-411h-113v411h-162v114h438v-114zM184 -36h129l-63 -223h-107z" />
    <glyph glyph-name="Tbar.sc" horiz-adv-x="498" 
d="M100 178v104h92v129h-162v114h438v-114h-163v-129h92v-104h-92v-178h-113v178h-92z" />
    <glyph glyph-name="uni0162.sc" horiz-adv-x="498" 
d="M468 411h-163v-411h-113v411h-162v114h438v-114zM187 -87q7 -13 23.5 -24t38.5 -11q17 0 27.5 5.5t10.5 17.5q0 9 -7 15t-17.5 10t-21.5 6t-20 3l20 78q27 -4 52 -12.5t44.5 -22.5t31 -34t11.5 -47q0 -46 -37.5 -74t-91.5 -28q-43 0 -80.5 21.5t-56.5 58.5z" />
    <glyph glyph-name="Ugrave.sc" horiz-adv-x="606" 
d="M536 525v-294q0 -113 -65.5 -177.5t-167.5 -64.5t-167.5 64.5t-65.5 177.5v294h114v-294q0 -64 34 -96.5t85 -32.5q50 0 84.5 32.5t34.5 96.5v294h114zM214 741l234 -96l-32 -86l-241 73z" />
    <glyph glyph-name="Uacute.sc" horiz-adv-x="606" 
d="M536 525v-294q0 -113 -65.5 -177.5t-167.5 -64.5t-167.5 64.5t-65.5 177.5v294h114v-294q0 -64 34 -96.5t85 -32.5q50 0 84.5 32.5t34.5 96.5v294h114zM409 741l39 -109l-241 -73l-32 86z" />
    <glyph glyph-name="Ucircumflex.sc" horiz-adv-x="606" 
d="M536 525v-294q0 -113 -65.5 -177.5t-167.5 -64.5t-167.5 64.5t-65.5 177.5v294h114v-294q0 -64 34 -96.5t85 -32.5q50 0 84.5 32.5t34.5 96.5v294h114zM479 634l-46 -78l-130 68l-130 -68l-46 78l176 105z" />
    <glyph glyph-name="Utilde.sc" horiz-adv-x="606" 
d="M536 525v-294q0 -113 -65.5 -177.5t-167.5 -64.5t-167.5 64.5t-65.5 177.5v294h114v-294q0 -64 34 -96.5t85 -32.5q50 0 84.5 32.5t34.5 96.5v294h114zM360 569q-19 0 -34.5 5.5t-30 12t-29 12t-30.5 5.5q-19 0 -33 -11.5t-24 -23.5l-45 81q6 7 16.5 17t24 19.5t30 16
t34.5 6.5q19 0 34.5 -5.5t30 -12t28.5 -12t30 -5.5q20 0 34.5 12t24.5 23l45 -81q-6 -7 -16.5 -17t-24.5 -19.5t-30.5 -16t-34.5 -6.5z" />
    <glyph glyph-name="Udieresis.sc" horiz-adv-x="606" 
d="M536 525v-294q0 -113 -65.5 -177.5t-167.5 -64.5t-167.5 64.5t-65.5 177.5v294h114v-294q0 -64 34 -96.5t85 -32.5q50 0 84.5 32.5t34.5 96.5v294h114zM133 672q0 31 20.5 51t50.5 20t50.5 -20t20.5 -51q0 -30 -20.5 -50.5t-50.5 -20.5t-50.5 20.5t-20.5 50.5zM331 672
q0 31 20.5 51t50.5 20t50.5 -20t20.5 -51q0 -30 -20.5 -50.5t-50.5 -20.5t-50.5 20.5t-20.5 50.5z" />
    <glyph glyph-name="Umacron.sc" horiz-adv-x="606" 
d="M536 525v-294q0 -113 -65.5 -177.5t-167.5 -64.5t-167.5 64.5t-65.5 177.5v294h114v-294q0 -64 34 -96.5t85 -32.5q50 0 84.5 32.5t34.5 96.5v294h114zM162 583v100h282v-100h-282z" />
    <glyph glyph-name="Ubreve.sc" horiz-adv-x="606" 
d="M536 525v-294q0 -113 -65.5 -177.5t-167.5 -64.5t-167.5 64.5t-65.5 177.5v294h114v-294q0 -64 34 -96.5t85 -32.5q50 0 84.5 32.5t34.5 96.5v294h114zM303 651q25 0 37 12t14 29l87 -16q-7 -46 -39 -79.5t-99 -33.5t-99 33.5t-39 79.5l87 16q2 -17 14 -29t37 -12z" />
    <glyph glyph-name="Uring.sc" horiz-adv-x="606" 
d="M536 525v-294q0 -113 -65.5 -177.5t-167.5 -64.5t-167.5 64.5t-65.5 177.5v294h114v-294q0 -64 34 -96.5t85 -32.5q50 0 84.5 32.5t34.5 96.5v294h114zM185 677q0 49 34 83t83 34t83.5 -34t34.5 -83t-34.5 -83.5t-83.5 -34.5t-83 34.5t-34 83.5zM261 676q0 -17 12 -29
t29 -12t29 12t12 29t-12 29t-29 12t-29 -12t-12 -29z" />
    <glyph glyph-name="Uhungarumlaut.sc" horiz-adv-x="606" 
d="M536 525v-294q0 -113 -65.5 -177.5t-167.5 -64.5t-167.5 64.5t-65.5 177.5v294h114v-294q0 -64 34 -96.5t85 -32.5q50 0 84.5 32.5t34.5 96.5v294h114zM261 768l83 -73l-129 -136l-71 61zM447 768l83 -73l-129 -136l-71 61z" />
    <glyph glyph-name="Uogonek.sc" horiz-adv-x="606" 
d="M536 525v-294q0 -113 -65.5 -177.5t-167.5 -64.5t-167.5 64.5t-65.5 177.5v294h114v-294q0 -64 34 -96.5t85 -32.5q50 0 84.5 32.5t34.5 96.5v294h114zM381 -193q-4 -1 -13 -1.5t-17 -0.5q-54 0 -91.5 28t-37.5 74q0 36 25.5 65t84.5 36l49 -8q-34 -10 -51 -31.5
t-17 -41.5q0 -19 13 -28.5t31 -9.5q6 0 12.5 1.5t11.5 3.5v-87z" />
    <glyph glyph-name="Wgrave.sc" horiz-adv-x="785" 
d="M141 525l79 -396l90 396h165l89 -394l80 394h121l-108 -525h-180l-84 393l-85 -393h-180l-108 525h121zM304 741l234 -96l-32 -86l-241 73z" />
    <glyph glyph-name="Wacute.sc" horiz-adv-x="785" 
d="M141 525l79 -396l90 396h165l89 -394l80 394h121l-108 -525h-180l-84 393l-85 -393h-180l-108 525h121zM499 741l39 -109l-241 -73l-32 86z" />
    <glyph glyph-name="Wcircumflex.sc" horiz-adv-x="785" 
d="M141 525l79 -396l90 396h165l89 -394l80 394h121l-108 -525h-180l-84 393l-85 -393h-180l-108 525h121zM569 634l-46 -78l-130 68l-130 -68l-46 78l176 105z" />
    <glyph glyph-name="Wdieresis.sc" horiz-adv-x="785" 
d="M141 525l79 -396l90 396h165l89 -394l80 394h121l-108 -525h-180l-84 393l-85 -393h-180l-108 525h121zM223 672q0 31 20.5 51t50.5 20t50.5 -20t20.5 -51q0 -30 -20.5 -50.5t-50.5 -20.5t-50.5 20.5t-20.5 50.5zM421 672q0 31 20.5 51t50.5 20t50.5 -20t20.5 -51
q0 -30 -20.5 -50.5t-50.5 -20.5t-50.5 20.5t-20.5 50.5z" />
    <glyph glyph-name="Ygrave.sc" horiz-adv-x="541" 
d="M327 0h-114v171l-188 354h121l124 -249l125 249h121l-189 -354v-171zM182 741l234 -96l-32 -86l-241 73z" />
    <glyph glyph-name="Yacute.sc" horiz-adv-x="541" 
d="M327 0h-114v171l-188 354h121l124 -249l125 249h121l-189 -354v-171zM377 741l39 -109l-241 -73l-32 86z" />
    <glyph glyph-name="Ycircumflex.sc" horiz-adv-x="541" 
d="M327 0h-114v171l-188 354h121l124 -249l125 249h121l-189 -354v-171zM447 634l-46 -78l-130 68l-130 -68l-46 78l176 105z" />
    <glyph glyph-name="Ydieresis.sc" horiz-adv-x="541" 
d="M327 0h-114v171l-188 354h121l124 -249l125 249h121l-189 -354v-171zM101 672q0 31 20.5 51t50.5 20t50.5 -20t20.5 -51q0 -30 -20.5 -50.5t-50.5 -20.5t-50.5 20.5t-20.5 50.5zM299 672q0 31 20.5 51t50.5 20t50.5 -20t20.5 -51q0 -30 -20.5 -50.5t-50.5 -20.5
t-50.5 20.5t-20.5 50.5z" />
    <glyph glyph-name="Zacute.sc" horiz-adv-x="524" 
d="M54 525h405v-114l-260 -297h275v-114h-424v114l259 297h-255v114zM368 741l39 -109l-241 -73l-32 86z" />
    <glyph glyph-name="Zcaron.sc" horiz-adv-x="524" 
d="M54 525h405v-114l-260 -297h275v-114h-424v114l259 297h-255v114zM438 664l-176 -105l-176 105l46 78l130 -68l130 68z" />
    <glyph glyph-name="Zdotaccent.sc" horiz-adv-x="524" 
d="M54 525h405v-114l-260 -297h275v-114h-424v114l259 297h-255v114zM183 642q0 34 23 56.5t56 22.5t56 -22.5t23 -56.5t-23 -56.5t-56 -22.5t-56 22.5t-23 56.5z" />
    <glyph glyph-name="Thorn.sc" horiz-adv-x="605" 
d="M85 0v525h113v-80h156q41 0 77.5 -12.5t64 -35t43.5 -55.5t16 -74t-16 -74.5t-43.5 -57t-65 -36t-78.5 -12.5h-154v-88h-113zM354 331h-156v-130h156q43 0 65 16.5t22 48.5t-22 48.5t-65 16.5z" />
    <glyph glyph-name="A.pc" horiz-adv-x="429" 
d="M316 0l-26 65h-153l-25 -65h-97l140 350h119l140 -350h-98zM172 157h84l-42 111z" />
    <glyph glyph-name="D.pc" horiz-adv-x="382" 
d="M184 350q81 0 132 -49t51 -126t-51 -126t-132 -49h-152v350h152zM125 257v-165h59q43 0 67 21.5t24 61.5t-24 61t-67 21h-59z" />
    <glyph glyph-name="E.pc" horiz-adv-x="367" 
d="M337 262h-212v-46h200v-82h-200v-47h215v-87h-308v350h305v-88z" />
    <glyph glyph-name="H.pc" horiz-adv-x="392" 
d="M275 0v130h-150v-130h-93v350h93v-128h150v128h92v-350h-92z" />
    <glyph glyph-name="I.pc" horiz-adv-x="177" 
d="M42 0v350h93v-350h-93z" />
    <glyph glyph-name="L.pc" horiz-adv-x="335" 
d="M125 87h185v-87h-278v350h93v-263z" />
    <glyph glyph-name="M.pc" horiz-adv-x="534" 
d="M406 0v222l-81 -222h-116l-81 222v-222h-93v350h140l92 -255l92 255h140v-350h-93z" />
    <glyph glyph-name="N.pc" horiz-adv-x="408" 
d="M263 0l-143 240v-240h-93v350h118l143 -240v240h93v-350h-118z" />
    <glyph glyph-name="O.pc" horiz-adv-x="397" 
d="M198 -7q-81 0 -132 52t-51 131q0 78 52.5 130t130.5 52t130.5 -52t52.5 -130q0 -79 -51 -131t-132 -52zM198 81q39 0 65 26t26 69q0 42 -26 68.5t-65 26.5t-65 -26.5t-26 -68.5q0 -43 26 -69t65 -26z" />
    <glyph glyph-name="P.pc" horiz-adv-x="367" 
d="M125 98v-98h-93v350h173q65 0 103.5 -34t38.5 -91t-38.5 -92t-104.5 -35h-79zM125 259v-71h84q24 0 35 9.5t11 25.5t-11 26t-35 10h-84z" />
    <glyph glyph-name="R.pc" horiz-adv-x="378" 
d="M253 0l-65 108h-63v-108h-93v350h185q57 0 93.5 -33.5t36.5 -86.5q0 -33 -18 -63t-49 -44l78 -123h-105zM217 259h-92v-61h92q20 0 31.5 8t11.5 23t-11.5 22.5t-31.5 7.5z" />
    <glyph glyph-name="S.pc" horiz-adv-x="365" 
d="M186 -7q-48 0 -81 10t-52.5 22t-28.5 22l-9 10l70 55l5.5 -5t18 -11.5t31.5 -11.5t46 -5q36 0 52.5 6t16.5 19q0 12 -9 18.5t-31 7.5l-60 5q-60 5 -94 33t-34 78q0 51 44.5 81.5t105.5 30.5q43 0 73.5 -9.5t49.5 -21.5t28 -21.5l9 -9.5l-70 -53l-20.5 15t-69.5 15
q-31 0 -43.5 -7.5t-12.5 -17.5t9 -16.5t31 -7.5l54 -5q63 -5 99 -33t36 -80q0 -30 -14 -51.5t-37 -35t-52.5 -20t-60.5 -6.5z" />
    <glyph glyph-name="T.pc" horiz-adv-x="332" 
d="M312 257h-100v-257h-93v257h-99v93h292v-93z" />
    <glyph glyph-name="V.pc" horiz-adv-x="361" 
d="M262 350h97l-125 -350h-109l-125 350h98l82 -248z" />
    <glyph glyph-name="a.ordn" horiz-adv-x="429" 
d="M316 350l-26 65h-153l-25 -65h-97l140 350h119l140 -350h-98zM172 507h84l-42 111z" />
    <glyph glyph-name="d.ordn" horiz-adv-x="390" 
d="M187 700q81 0 132 -49t51 -126t-51 -126t-132 -49h-152v350h152zM128 607v-165h59q43 0 67 21.5t24 61.5t-24 61t-67 21h-59z" />
    <glyph glyph-name="e.ordn" horiz-adv-x="378" 
d="M340 612h-212v-46h200v-82h-200v-47h215v-87h-308v350h305v-88z" />
    <glyph glyph-name="g.ordn" horiz-adv-x="407" 
d="M293 350v30q-19 -17 -45.5 -27t-52.5 -10q-36 0 -68 13t-55.5 37t-37.5 58t-14 75q0 77 52.5 129.5t127.5 52.5q59 0 100 -26.5t60 -68.5l-83 -36q-10 20 -29.5 32t-47.5 12q-37 0 -62.5 -27t-25.5 -68q0 -42 25.5 -68.5t63.5 -26.5q29 0 50.5 10t32.5 30h-85v82h178
v-203h-84z" />
    <glyph glyph-name="l.ordn" horiz-adv-x="343" 
d="M128 437h185v-87h-278v350h93v-263z" />
    <glyph glyph-name="m.ordn" horiz-adv-x="534" 
d="M406 350v222l-81 -222h-116l-81 222v-222h-93v350h140l92 -255l92 255h140v-350h-93z" />
    <glyph glyph-name="o.ordn" horiz-adv-x="406" 
d="M203 343q-81 0 -132 52t-51 131q0 78 52.5 130t130.5 52t130.5 -52t52.5 -130q0 -79 -51 -131t-132 -52zM203 431q39 0 65 26t26 69q0 42 -26 68.5t-65 26.5t-65 -26.5t-26 -68.5q0 -43 26 -69t65 -26z" />
    <glyph glyph-name="r.ordn" horiz-adv-x="386" 
d="M256 350l-65 108h-63v-108h-93v350h185q57 0 93.5 -33.5t36.5 -86.5q0 -33 -18 -63t-49 -44l78 -123h-105zM220 609h-92v-61h92q20 0 31.5 8t11.5 23t-11.5 22.5t-31.5 7.5z" />
    <glyph glyph-name="s.ordn" horiz-adv-x="375" 
d="M191 343q-48 0 -81 10t-52.5 22t-28.5 22l-9 10l70 55l5.5 -5t18 -11.5t31.5 -11.5t46 -5q36 0 52.5 6t16.5 19q0 12 -9 18.5t-31 7.5l-60 5q-60 5 -94 33t-34 78q0 51 44.5 81.5t105.5 30.5q43 0 73.5 -9.5t49.5 -21.5t28 -21.5l9 -9.5l-70 -53l-20.5 15t-69.5 15
q-31 0 -43.5 -7.5t-12.5 -17.5t9 -16.5t31 -7.5l54 -5q63 -5 99 -33t36 -80q0 -30 -14 -51.5t-37 -35t-52.5 -20t-60.5 -6.5z" />
    <glyph glyph-name="t.ordn" horiz-adv-x="332" 
d="M312 607h-100v-257h-93v257h-99v93h292v-93z" />
    <glyph glyph-name="caron.alt" 
d="M202 700h118l-34 -208h-99z" />
    <glyph glyph-name="revcommaaccent" horiz-adv-x="501" 
d="M304 576h-129l63 223h107z" />
    <glyph glyph-name="grave.cap" 
d="M112 794l26 112l250 -69l-22 -92z" />
    <glyph glyph-name="acute.cap" 
d="M362 906l26 -112l-254 -49l-22 92z" />
    <glyph glyph-name="circumflex.cap" 
d="M250 898l161 -61l-29 -92l-132 43l-132 -43l-29 92z" />
    <glyph glyph-name="caron.cap" 
d="M250 745l-161 61l29 92l132 -43l132 43l29 -92z" />
    <glyph glyph-name="tilde.cap" 
d="M370 889l59 -85l-8 -9t-22.5 -20.5t-34 -20.5t-43.5 -9q-18 0 -34.5 5t-32 11.5t-30.5 11.5t-30 5q-12 0 -23.5 -5t-20 -11.5t-13.5 -11.5l-5 -5l-59 85l8 9t22.5 20.5t34 20.5t43.5 9q18 0 34.5 -5t32 -11.5t30.5 -11.5t30 -5q12 0 23.5 5t20 11.5t13.5 11.5z" />
    <glyph glyph-name="dieresis.cap" 
d="M80 810q0 31 20.5 51t50.5 20t50.5 -20t20.5 -51q0 -30 -20.5 -50.5t-50.5 -20.5t-50.5 20.5t-20.5 50.5zM278 810q0 31 20.5 51t50.5 20t50.5 -20t20.5 -51q0 -30 -20.5 -50.5t-50.5 -20.5t-50.5 20.5t-20.5 50.5z" />
    <glyph glyph-name="macron.cap" 
d="M109 760v100h282v-100h-282z" />
    <glyph glyph-name="breve.cap" 
d="M193 882q2 -19 15 -32t42 -13t42 13t15 32l90 -15q-7 -54 -42 -88t-105 -34t-105 36.5t-42 85.5z" />
    <glyph glyph-name="ring.cap" 
d="M121 874q0 54 37.5 91.5t91.5 37.5t91.5 -37.5t37.5 -91.5t-37.5 -91.5t-91.5 -37.5t-91.5 37.5t-37.5 91.5zM209 874q0 -17 12 -29t29 -12t29 12t12 29t-12 29t-29 12t-29 -12t-12 -29z" />
    <glyph glyph-name="hungarumlaut.cap" 
d="M174 926l97 -61l-90 -120l-80 49zM343 926l97 -61l-90 -120l-80 49z" />
    <glyph glyph-name="dotaccent.cap" horiz-adv-x="501" 
d="M172 829q0 34 23 56.5t56 22.5t56 -22.5t23 -56.5t-23 -56.5t-56 -22.5t-56 22.5t-23 56.5z" />
    <glyph glyph-name="grave.sc" 
d="M161 741l234 -96l-32 -86l-241 73z" />
    <glyph glyph-name="acute.sc" 
d="M356 741l39 -109l-241 -73l-32 86z" />
    <glyph glyph-name="circumflex.sc" 
d="M426 634l-46 -78l-130 68l-130 -68l-46 78l176 105z" />
    <glyph glyph-name="caron.sc" 
d="M426 664l-176 -105l-176 105l46 78l130 -68l130 68z" />
    <glyph glyph-name="tilde.sc" horiz-adv-x="501" 
d="M308 569q-19 0 -34.5 5.5t-30 12t-29 12t-30.5 5.5q-19 0 -33 -11.5t-24 -23.5l-45 81q6 7 16.5 17t24 19.5t30 16t34.5 6.5q19 0 34.5 -5.5t30 -12t28.5 -12t30 -5.5q20 0 34.5 12t24.5 23l45 -81q-6 -7 -16.5 -17t-24.5 -19.5t-30.5 -16t-34.5 -6.5z" />
    <glyph glyph-name="dieresis.sc" 
d="M80 672q0 31 20.5 51t50.5 20t50.5 -20t20.5 -51q0 -30 -20.5 -50.5t-50.5 -20.5t-50.5 20.5t-20.5 50.5zM278 672q0 31 20.5 51t50.5 20t50.5 -20t20.5 -51q0 -30 -20.5 -50.5t-50.5 -20.5t-50.5 20.5t-20.5 50.5z" />
    <glyph glyph-name="macron.sc" 
d="M109 583v100h282v-100h-282z" />
    <glyph glyph-name="breve.sc" 
d="M250 651q25 0 37 12t14 29l87 -16q-7 -46 -39 -79.5t-99 -33.5t-99 33.5t-39 79.5l87 16q2 -17 14 -29t37 -12z" />
    <glyph glyph-name="ring.sc" horiz-adv-x="501" 
d="M133 677q0 49 34 83t83 34t83.5 -34t34.5 -83t-34.5 -83.5t-83.5 -34.5t-83 34.5t-34 83.5zM209 676q0 -17 12 -29t29 -12t29 12t12 29t-12 29t-29 12t-29 -12t-12 -29z" />
    <glyph glyph-name="hungarumlaut.sc" 
d="M208 768l83 -73l-129 -136l-71 61zM394 768l83 -73l-129 -136l-71 61z" />
    <glyph glyph-name="dotaccent.sc" horiz-adv-x="501" 
d="M172 642q0 34 23 56.5t56 22.5t56 -22.5t23 -56.5t-23 -56.5t-56 -22.5t-56 22.5t-23 56.5z" />
    <glyph glyph-name="General.liga" horiz-adv-x="1568" 
d="M397 365h309v-365h-115v56q-42 -39 -93.5 -55t-105.5 -16q-72 0 -135 27.5t-108.5 76t-72 115.5t-26.5 146t26.5 146t73 115.5t110 76t137.5 27.5q112 0 196.5 -55t121.5 -161l-113 -52q-21 63 -74 103t-131 40q-101 0 -161.5 -66.5t-60.5 -173.5t60.5 -173.5
t161.5 -66.5q75 0 124.5 38t65.5 92h-190v125zM1106 350l-26 65h-153l-25 -65h-97l140 350h119l140 -350h-98zM1343 437h185v-87h-278v350h93v-263zM962 507h84l-42 111zM805 176v87h723v-87h-723z" />
    <glyph glyph-name="Marechal.liga" horiz-adv-x="1775" 
d="M787 0v584l-192 -584h-193l-192 584v-584h-125v700h219l194 -593l195 593h219v-700h-125zM1302 350l-26 65h-153l-25 -65h-97l140 350h119l140 -350h-98zM1539 437h185v-87h-278v350h93v-263zM1158 507h84l-42 111zM1002 176v87h723v-87h-723z" />
    <glyph glyph-name="Colonel.liga" horiz-adv-x="1963" 
d="M716 205q-33 -104 -119.5 -162t-199.5 -58q-74 0 -137.5 27.5t-110 76t-73 115.5t-26.5 146t26.5 146t73 115.5t110 76t137.5 27.5q112 0 196.5 -55t121.5 -161l-113 -52q-21 63 -74 103t-131 40q-101 0 -161.5 -66.5t-60.5 -173.5t60.5 -173.5t161.5 -66.5q80 0 133 41
t73 106zM1036 350l-143 240v-240h-93v350h118l143 -240v240h93v-350h-118zM1545 612h-212v-46h200v-82h-200v-47h215v-87h-308v350h305v-88zM1718 437h185v-87h-278v350h93v-263zM800 176v87h1103v-87h-1103z" />
    <glyph glyph-name="Caporal.liga" horiz-adv-x="1563" 
d="M716 205q-33 -104 -119.5 -162t-199.5 -58q-74 0 -137.5 27.5t-110 76t-73 115.5t-26.5 146t26.5 146t73 115.5t110 76t137.5 27.5q112 0 196.5 -55t121.5 -161l-113 -52q-21 63 -74 103t-131 40q-101 0 -161.5 -66.5t-60.5 -173.5t60.5 -173.5t161.5 -66.5q80 0 133 41
t73 106zM1090 350l-26 65h-153l-25 -65h-97l140 350h119l140 -350h-98zM1327 437h185v-87h-278v350h93v-263zM946 507h84l-42 111zM790 176v87h723v-87h-723z" />
    <glyph glyph-name="Capitaine.liga" horiz-adv-x="2207" 
d="M716 205q-33 -104 -119.5 -162t-199.5 -58q-74 0 -137.5 27.5t-110 76t-73 115.5t-26.5 146t26.5 146t73 115.5t110 76t137.5 27.5q112 0 196.5 -55t121.5 -161l-113 -52q-21 63 -74 103t-131 40q-101 0 -161.5 -66.5t-60.5 -173.5t60.5 -173.5t161.5 -66.5q80 0 133 41
t73 106zM1647 350l-143 240v-240h-93v350h118l143 -240v240h93v-350h-118zM2154 612h-212v-46h200v-82h-200v-47h215v-87h-308v350h305v-88zM1090 350l-26 65h-153l-25 -65h-97l140 350h119l140 -350h-98zM1232 350v350h93v-350h-93zM946 507h84l-42 111zM790 176v87h1367
v-87h-1367z" />
    <glyph glyph-name="Champs.liga" horiz-adv-x="1952" 
d="M716 205q-33 -104 -119.5 -162t-199.5 -58q-74 0 -137.5 27.5t-110 76t-73 115.5t-26.5 146t26.5 146t73 115.5t110 76t137.5 27.5q112 0 196.5 -55t121.5 -161l-113 -52q-21 63 -74 103t-131 40q-101 0 -161.5 -66.5t-60.5 -173.5t60.5 -173.5t161.5 -66.5q80 0 133 41
t73 106zM1738 343q-48 0 -81 10t-52.5 22t-28.5 22l-9 10l70 55l5.5 -5t18 -11.5t31.5 -11.5t46 -5q36 0 52.5 6t16.5 19q0 12 -9 18.5t-31 7.5l-60 5q-60 5 -94 33t-34 78q0 51 44.5 81.5t105.5 30.5q43 0 73.5 -9.5t49.5 -21.5t28 -21.5l9 -9.5l-70 -53l-20.5 15t-69.5 15
q-31 0 -43.5 -7.5t-12.5 -17.5t9 -16.5t31 -7.5l54 -5q63 -5 99 -33t36 -80q0 -30 -14 -51.5t-37 -35t-52.5 -20t-60.5 -6.5zM1304 448v-98h-93v350h173q65 0 103.5 -34t38.5 -91t-38.5 -92t-104.5 -35h-79zM1033 350v130h-150v-130h-93v350h93v-128h150v128h92v-350h-92z
M1304 609v-71h84q24 0 35 9.5t11 25.5t-11 26t-35 10h-84zM790 176v87h1107v-87h-1107z" />
    <glyph glyph-name="Avenue.liga" horiz-adv-x="1107" 
d="M623 0l-70 180h-329l-69 -180h-135l270 700h198l270 -700h-135zM887 700h97l-125 -350h-109l-125 350h98l82 -248zM272 305h233l-116 301zM1007 345q-24 0 -40.5 17t-16.5 40q0 24 16.5 40.5t40.5 16.5q23 0 40 -16.5t17 -40.5q0 -23 -17 -40t-40 -17zM750 176v87h307
v-87h-307z" />
    <glyph glyph-name="Boulevard.liga" horiz-adv-x="1160" 
d="M85 0v700h396q42 0 79.5 -16t65 -43.5t43.5 -64.5t16 -79t-15 -79.5t-50 -65.5q34 -28 49.5 -66t15.5 -82q0 -42 -16 -79t-43.5 -65t-65 -44t-79.5 -16h-396zM927 700q81 0 132 -49t51 -126t-51 -126t-132 -49h-152v350h152zM868 607v-165h59q43 0 67 21.5t24 61.5
t-24 61t-67 21h-59zM479 413q34 0 57.5 24t23.5 57t-23.5 57t-57.5 24h-269v-162h269zM478 125q34 0 58 24.5t24 57.5t-24 57.5t-58 24.5h-268v-164h268zM775 176v87h315v-87h-315z" />
    <glyph glyph-name="Saint.liga" horiz-adv-x="1092" 
d="M372 -15q-96 0 -158.5 25t-98.5 54t-50.5 54l-14.5 25l105 76l12.5 -17t38.5 -37.5t67.5 -37.5t98.5 -17q36 0 68.5 4.5t57 15.5t38.5 28.5t14 42.5q0 42 -37.5 60.5t-82.5 22.5l-120 10q-49 4 -92 18t-74.5 39t-50 62.5t-18.5 87.5t23.5 90t62 67.5t89.5 42t105 14.5
q85 0 143 -24.5t92.5 -53t49.5 -53l15 -24.5l-105 -74l-9 16.5t-31.5 35.5t-60 35.5t-94.5 16.5q-66 0 -109.5 -23t-43.5 -66q0 -37 30 -55.5t78 -22.5l120 -10q53 -4 98.5 -18t79 -38.5t53 -62.5t19.5 -90q0 -54 -25 -95.5t-67 -68.5t-98 -41t-118 -14zM1042 607h-100v-257
h-93v257h-99v93h292v-93zM750 176v87h292v-87h-292z" />
    <glyph glyph-name="Sainte.liga" horiz-adv-x="1474" 
d="M372 -15q-96 0 -158.5 25t-98.5 54t-50.5 54l-14.5 25l105 76l12.5 -17t38.5 -37.5t67.5 -37.5t98.5 -17q36 0 68.5 4.5t57 15.5t38.5 28.5t14 42.5q0 42 -37.5 60.5t-82.5 22.5l-120 10q-49 4 -92 18t-74.5 39t-50 62.5t-18.5 87.5t23.5 90t62 67.5t89.5 42t105 14.5
q85 0 143 -24.5t92.5 -53t49.5 -53l15 -24.5l-105 -74l-9 16.5t-31.5 35.5t-60 35.5t-94.5 16.5q-66 0 -109.5 -23t-43.5 -66q0 -37 30 -55.5t78 -22.5l120 -10q53 -4 98.5 -18t79 -38.5t53 -62.5t19.5 -90q0 -54 -25 -95.5t-67 -68.5t-98 -41t-118 -14zM1421 612h-212v-46
h200v-82h-200v-47h215v-87h-308v350h305v-88zM1042 607h-100v-257h-93v257h-99v93h292v-93zM750 176v87h674v-87h-674z" />
    <glyph glyph-name="Petit.liga" horiz-adv-x="1622" 
d="M210 237v-237h-125v700h356q50 0 94.5 -17.5t77.5 -47.5t52.5 -72.5t19.5 -91.5q0 -50 -19.5 -93t-53 -74t-78.5 -49t-95 -18h-229zM1032 607h-100v-257h-93v257h-99v93h292v-93zM1572 607h-100v-257h-93v257h-99v93h292v-93zM1108 350v350h93v-350h-93zM210 575v-214
h228q56 0 89 29.5t33 77.5t-33 77.5t-89 29.5h-228zM740 176v87h832v-87h-832z" />
    <glyph glyph-name="Petite.liga" horiz-adv-x="2009" 
d="M210 237v-237h-125v700h356q50 0 94.5 -17.5t77.5 -47.5t52.5 -72.5t19.5 -91.5q0 -50 -19.5 -93t-53 -74t-78.5 -49t-95 -18h-229zM1956 612h-212v-46h200v-82h-200v-47h215v-87h-308v350h305v-88zM1572 607h-100v-257h-93v257h-99v93h292v-93zM1032 607h-100v-257h-93
v257h-99v93h292v-93zM1108 350v350h93v-350h-93zM210 575v-214h228q56 0 89 29.5t33 77.5t-33 77.5t-89 29.5h-228zM740 176v87h1219v-87h-1219z" />
    <glyph glyph-name="Grand.liga" horiz-adv-x="1190" 
d="M397 365h309v-365h-115v56q-42 -39 -93.5 -55t-105.5 -16q-72 0 -135 27.5t-108.5 76t-72 115.5t-26.5 146t26.5 146t73 115.5t110 76t137.5 27.5q112 0 196.5 -55t121.5 -161l-113 -52q-21 63 -74 103t-131 40q-101 0 -161.5 -66.5t-60.5 -173.5t60.5 -173.5
t161.5 -66.5q75 0 124.5 38t65.5 92h-190v125zM957 700q81 0 132 -49t51 -126t-51 -126t-132 -49h-152v350h152zM898 607v-165h59q43 0 67 21.5t24 61.5t-24 61t-67 21h-59zM805 176v87h320v-87h-320z" />
    <glyph glyph-name="Grande.liga" horiz-adv-x="1568" 
d="M397 365h309v-365h-115v56q-42 -39 -93.5 -55t-105.5 -16q-72 0 -135 27.5t-108.5 76t-72 115.5t-26.5 146t26.5 146t73 115.5t110 76t137.5 27.5q112 0 196.5 -55t121.5 -161l-113 -52q-21 63 -74 103t-131 40q-101 0 -161.5 -66.5t-60.5 -173.5t60.5 -173.5
t161.5 -66.5q75 0 124.5 38t65.5 92h-190v125zM957 700q81 0 132 -49t51 -126t-51 -126t-132 -49h-152v350h152zM1515 612h-212v-46h200v-82h-200v-47h215v-87h-308v350h305v-88zM898 607v-165h59q43 0 67 21.5t24 61.5t-24 61t-67 21h-59zM805 176v87h713v-87h-713z" />
    <glyph glyph-name="Route.liga" horiz-adv-x="1460" 
d="M557 0l-131 257h-216v-257h-125v700h366q50 0 93 -17t74 -46.5t49 -69.5t18 -86q0 -66 -35.5 -120t-94.5 -81l151 -280h-149zM1407 612h-212v-46h200v-82h-200v-47h215v-87h-308v350h305v-88zM1032 607h-100v-257h-93v257h-99v93h292v-93zM448 575h-238v-194h238
q56 0 84 28.5t28 68.5t-28 68.5t-84 28.5zM740 176v87h670v-87h-670z" />
    <glyph glyph-name="Notre.liga" horiz-adv-x="1951" 
d="M526 0l-316 590v-590h-125v700h206l316 -590v590h125v-700h-206zM1418 350l-65 108h-63v-108h-93v350h185q57 0 93.5 -33.5t36.5 -86.5q0 -33 -18 -63t-49 -44l78 -123h-105zM1898 612h-212v-46h200v-82h-200v-47h215v-87h-308v350h305v-88zM1125 607h-100v-257h-93v257
h-99v93h292v-93zM1382 609h-92v-61h92q20 0 31.5 8t11.5 23t-11.5 22.5t-31.5 7.5zM832 176v87h1069v-87h-1069z" />
    <glyph glyph-name="Compagnie.liga" horiz-adv-x="1340" 
d="M716 205q-33 -104 -119.5 -162t-199.5 -58q-74 0 -137.5 27.5t-110 76t-73 115.5t-26.5 146t26.5 146t73 115.5t110 76t137.5 27.5q112 0 196.5 -55t121.5 -161l-113 -52q-21 63 -74 103t-131 40q-101 0 -161.5 -66.5t-60.5 -173.5t60.5 -173.5t161.5 -66.5q80 0 133 41
t73 106zM1287 612h-212v-46h200v-82h-200v-47h215v-87h-308v350h305v-88zM800 350v350h93v-350h-93zM800 176v87h490v-87h-490z" />
    <glyph glyph-name="hyphen.cap" horiz-adv-x="470" 
d="M85 290v125h300v-125h-300z" />
    <glyph glyph-name="hyphen.sc" horiz-adv-x="342" 
d="M50 207v114h242v-114h-242z" />
    <glyph glyph-name="exclamdown.cap" horiz-adv-x="314" 
d="M236 636q0 -34 -23 -56.5t-56 -22.5t-56 22.5t-23 56.5t23 56.5t56 22.5t56 -22.5t23 -56.5zM205 472l24 -472h-144l24 472h96z" />
    <glyph glyph-name="questiondown.cap" horiz-adv-x="585" 
d="M373 636q0 -34 -23 -56.5t-56 -22.5t-56 22.5t-23 56.5t23 56.5t56 22.5t56 -22.5t23 -56.5zM231 472h127v-132l-106 -51q-40 -19 -60 -42t-20 -53q0 -39 31 -61.5t81 -22.5q38 0 65 15t44.5 33t25.5 33l8 15l108 -57l-13.5 -25.5t-43 -56.5t-77.5 -56.5t-117 -25.5
q-53 0 -98 17.5t-77.5 47.5t-50.5 70.5t-18 84.5q0 69 42 116t101 75l48 23v53z" />
    <glyph glyph-name="quoteleft.sc" horiz-adv-x="311" 
d="M187 256h-131l81 288h103z" />
    <glyph glyph-name="quoteright.sc" horiz-adv-x="311" 
d="M124 544h131l-81 -288h-103z" />
    <glyph glyph-name="quotedblleft.sc" horiz-adv-x="516" 
d="M187 256h-131l81 288h103zM390 256h-131l81 288h103z" />
    <glyph glyph-name="quotedblright.sc" horiz-adv-x="516" 
d="M329 544h131l-81 -288h-103zM126 544h131l-81 -288h-103z" />
    <glyph glyph-name="guilsinglleft.cap" horiz-adv-x="345" 
d="M40 325l115 250h130l-115 -250l115 -250h-130z" />
    <glyph glyph-name="guilsinglright.cap" horiz-adv-x="345" 
d="M305 325l-115 -250h-130l115 250l-115 250h130z" />
    <glyph glyph-name="guillemotleft.cap" horiz-adv-x="575" 
d="M40 325l115 250h130l-115 -250l115 -250h-130zM270 325l115 250h130l-115 -250l115 -250h-130z" />
    <glyph glyph-name="guillemotright.cap" horiz-adv-x="575" 
d="M285 325l-115 -250h-130l115 250l-115 250h130zM515 325l-115 -250h-130l115 250l-115 250h130z" />
    <glyph glyph-name="slash.sc" horiz-adv-x="431" 
d="M50 0l210 525h121l-210 -525h-121z" />
    <glyph glyph-name="backslash.sc" horiz-adv-x="431" 
d="M50 525h121l210 -525h-121z" />
    <glyph glyph-name="endash.cap" horiz-adv-x="570" 
d="M85 290v125h400v-125h-400z" />
    <glyph glyph-name="endash.sc" horiz-adv-x="442" 
d="M50 207v114h342v-114h-342z" />
    <glyph glyph-name="emdash.cap" horiz-adv-x="997" 
d="M85 290v125h827v-125h-827z" />
    <glyph glyph-name="emdash.sc" horiz-adv-x="642" 
d="M50 207v114h542v-114h-542z" />
    <glyph glyph-name="periodcentered.cap" horiz-adv-x="310" 
d="M76 356q0 34 23 56.5t56 22.5t56 -22.5t23 -56.5t-23 -56.5t-56 -22.5t-56 22.5t-23 56.5z" />
    <glyph glyph-name="periodcentered.sc" horiz-adv-x="250" 
d="M46 254q0 34 23 56.5t56 22.5t56 -22.5t23 -56.5t-23 -56.5t-56 -22.5t-56 22.5t-23 56.5z" />
    <glyph glyph-name="parenleft.cap" horiz-adv-x="375" 
d="M50 350q0 73 13.5 137.5t35 120t49 103.5t56.5 88l106 -67q-53 -81 -91.5 -174.5t-38.5 -207.5t38.5 -207.5t91.5 -174.5l-106 -67q-29 40 -56.5 88t-49 103.5t-35 120t-13.5 137.5z" />
    <glyph glyph-name="parenright.cap" horiz-adv-x="375" 
d="M325 350q0 -73 -13.5 -137.5t-35 -120t-49 -103.5t-56.5 -88l-106 67q53 81 91.5 174.5t38.5 207.5t-38.5 207.5t-91.5 174.5l106 67q29 -40 56.5 -88t49 -103.5t35 -120t13.5 -137.5z" />
    <glyph glyph-name="bracketleft.cap" horiz-adv-x="425" 
d="M85 -75v850h300v-125h-175v-600h175v-125h-300z" />
    <glyph glyph-name="bracketright.cap" horiz-adv-x="425" 
d="M40 -75v125h175v600h-175v125h300v-850h-300z" />
    <glyph glyph-name="braceleft.cap" horiz-adv-x="424" 
d="M265 476q7 -46 -3 -78.5t-53 -47.5q43 -15 53 -47.5t3 -78.5l-30 -178h124v-121h-100q-91 0 -124.5 49.5t-20.5 120.5l26 145q4 20 -5 35t-30 15h-45v121h45q21 0 30 14.5t5 35.5l-26 144q-13 71 20.5 120.5t124.5 49.5h100v-121h-124z" />
    <glyph glyph-name="braceright.cap" horiz-adv-x="424" 
d="M159 476l30 178h-124v121h100q91 0 124.5 -49.5t20.5 -120.5l-26 -144q-4 -21 5 -35.5t30 -14.5h45v-121h-45q-21 0 -30 -15t-5 -35l26 -145q13 -71 -20.5 -120.5t-124.5 -49.5h-100v121h124l-30 178q-7 46 3 78.5t53 47.5q-43 15 -53 47.5t-3 78.5z" />
    <glyph glyph-name="numero_s" horiz-adv-x="1618" 
d="M1005 343q-81 0 -132 52t-51 131q0 78 52.5 130t130.5 52t130.5 -52t52.5 -130q0 -79 -51 -131t-132 -52zM1404 343q-48 0 -81 10t-52.5 22t-28.5 22l-9 10l70 55l5.5 -5t18 -11.5t31.5 -11.5t46 -5q36 0 52.5 6t16.5 19q0 12 -9 18.5t-31 7.5l-60 5q-60 5 -94 33t-34 78
q0 51 44.5 81.5t105.5 30.5q43 0 73.5 -9.5t49.5 -21.5t28 -21.5l9 -9.5l-70 -53l-20.5 15t-69.5 15q-31 0 -43.5 -7.5t-12.5 -17.5t9 -16.5t31 -7.5l54 -5q63 -5 99 -33t36 -80q0 -30 -14 -51.5t-37 -35t-52.5 -20t-60.5 -6.5zM526 0l-316 590v-590h-125v700h206l316 -590
v590h125v-700h-206zM1005 431q39 0 65 26t26 69q0 42 -26 68.5t-65 26.5t-65 -26.5t-26 -68.5q0 -43 26 -69t65 -26zM832 176v87h736v-87h-736z" />
    <glyph glyph-name="numeroLC" horiz-adv-x="1070" 
d="M837 343q-81 0 -132 52t-51 131q0 78 52.5 130t130.5 52t130.5 -52t52.5 -130q0 -79 -51 -131t-132 -52zM837 431q39 0 65 26t26 69q0 42 -26 68.5t-65 26.5t-65 -26.5t-26 -68.5q0 -43 26 -69t65 -26zM444 0v280q0 58 -33.5 91.5t-90.5 33.5q-56 0 -95.5 -34t-39.5 -106
v-265h-120v505h120v-79q6 11 19.5 27.5t35 31t50 25t63.5 10.5q101 0 156 -62t55 -170v-288h-120zM664 176v87h347v-87h-347z" />
    <glyph glyph-name="numeroLC_s" horiz-adv-x="1450" 
d="M837 343q-81 0 -132 52t-51 131q0 78 52.5 130t130.5 52t130.5 -52t52.5 -130q0 -79 -51 -131t-132 -52zM1236 343q-48 0 -81 10t-52.5 22t-28.5 22l-9 10l70 55l5.5 -5t18 -11.5t31.5 -11.5t46 -5q36 0 52.5 6t16.5 19q0 12 -9 18.5t-31 7.5l-60 5q-60 5 -94 33t-34 78
q0 51 44.5 81.5t105.5 30.5q43 0 73.5 -9.5t49.5 -21.5t28 -21.5l9 -9.5l-70 -53l-20.5 15t-69.5 15q-31 0 -43.5 -7.5t-12.5 -17.5t9 -16.5t31 -7.5l54 -5q63 -5 99 -33t36 -80q0 -30 -14 -51.5t-37 -35t-52.5 -20t-60.5 -6.5zM837 431q39 0 65 26t26 69q0 42 -26 68.5
t-65 26.5t-65 -26.5t-26 -68.5q0 -43 26 -69t65 -26zM444 0v280q0 58 -33.5 91.5t-90.5 33.5q-56 0 -95.5 -34t-39.5 -106v-265h-120v505h120v-79q6 11 19.5 27.5t35 31t50 25t63.5 10.5q101 0 156 -62t55 -170v-288h-120zM664 176v87h736v-87h-736z" />
    <glyph glyph-name="numero.sc" horiz-adv-x="1096" 
d="M863 343q-81 0 -132 52t-51 131q0 78 52.5 130t130.5 52t130.5 -52t52.5 -130q0 -79 -51 -131t-132 -52zM863 431q39 0 65 26t26 69q0 42 -26 68.5t-65 26.5t-65 -26.5t-26 -68.5q0 -43 26 -69t65 -26zM425 0l-227 392v-392h-113v525h164l227 -398v398h114v-525h-165z
M690 176v87h347v-87h-347z" />
    <glyph glyph-name="numero_s.sc" horiz-adv-x="1476" 
d="M863 343q-81 0 -132 52t-51 131q0 78 52.5 130t130.5 52t130.5 -52t52.5 -130q0 -79 -51 -131t-132 -52zM1262 343q-48 0 -81 10t-52.5 22t-28.5 22l-9 10l70 55l5.5 -5t18 -11.5t31.5 -11.5t46 -5q36 0 52.5 6t16.5 19q0 12 -9 18.5t-31 7.5l-60 5q-60 5 -94 33t-34 78
q0 51 44.5 81.5t105.5 30.5q43 0 73.5 -9.5t49.5 -21.5t28 -21.5l9 -9.5l-70 -53l-20.5 15t-69.5 15q-31 0 -43.5 -7.5t-12.5 -17.5t9 -16.5t31 -7.5l54 -5q63 -5 99 -33t36 -80q0 -30 -14 -51.5t-37 -35t-52.5 -20t-60.5 -6.5zM863 431q39 0 65 26t26 69q0 42 -26 68.5
t-65 26.5t-65 -26.5t-26 -68.5q0 -43 26 -69t65 -26zM425 0l-227 392v-392h-113v525h164l227 -398v398h114v-525h-165zM690 176v87h736v-87h-736z" />
    <glyph glyph-name="ampersand.sc" horiz-adv-x="485" 
d="M465 0h-121l-29 38l-11 -9q-20 -16 -46.5 -26.5t-61.5 -10.5q-31 0 -59.5 10.5t-50 29.5t-34 46.5t-12.5 62.5q0 47 23 81.5t59 61.5l4 3l-10 14q-20 28 -29 52t-9 49q0 54 39 92t98 38q60 0 97 -39t37 -93q0 -38 -22 -68.5t-56 -55.5l-8 -6l70 -94l69 55l58 -80l-68 -53
zM223 360q16 12 22.5 22.5t6.5 23.5q0 15 -10.5 25.5t-26.5 10.5q-18 0 -27.5 -11.5t-9.5 -26.5q0 -8 3.5 -18.5t13.5 -23.5l11 -15zM142 146q0 -19 15 -36.5t42 -17.5q19 0 31 5.5t22 13.5l5 4l-73 96l-12 -9q-13 -10 -21.5 -23.5t-8.5 -32.5z" />
    </font>
</defs>
</svg>
